<?xml version="1.0" standalone="no"?>
<!DOCTYPE svg PUBLIC "-//W3C//DTD SVG 1.1//EN" "http://www.w3.org/Graphics/SVG/1.1/DTD/svg11.dtd" >
<svg>
<metadata>
Created by FontForge 20110222 at Thu Feb  5 10:35:13 2015
 By deploy user
2009 Hans Reichel published by FSI FontShop International GmbH
</metadata>
<defs>
<font id="DaxOffc-WideMedi" horiz-adv-x="622" >
  <font-face 
    font-family="Dax Offc Wide Medium"
    font-weight="500"
    font-stretch="semi-expanded"
    units-per-em="1000"
    panose-1="2 11 6 5 4 1 1 2 1 2"
    ascent="785"
    descent="-215"
    x-height="539"
    cap-height="688"
    bbox="-822 -309 1261 982"
    underline-thickness="70"
    underline-position="-100"
    unicode-range="U+0020-FB02"
  />
<missing-glyph 
d="M67 698h488v-698h-488v698zM485 70v558h-348v-558h348z" />
    <glyph glyph-name=".notdef" 
d="M67 698h488v-698h-488v698zM485 70v558h-348v-558h348z" />
    <glyph glyph-name=".null" horiz-adv-x="0" 
 />
    <glyph glyph-name="nonmarkingreturn" horiz-adv-x="293" 
 />
    <glyph glyph-name="space" unicode=" " horiz-adv-x="293" 
 />
    <glyph glyph-name="exclam" unicode="!" horiz-adv-x="316" 
d="M216 236h-95l-27 452h149zM246 63q0 -29 -23 -49.5t-55 -20.5t-54.5 20.5t-22.5 49.5t22.5 49.5t54.5 20.5t55 -20.5t23 -49.5z" />
    <glyph glyph-name="quotedbl" unicode="&#x22;" horiz-adv-x="428" 
d="M153 412h-64l-24 261q10 12 24.5 18t31.5 6t31.5 -6t24.5 -18zM339 412h-64l-24 261q10 12 24.5 18t31.5 6t31.5 -6t24.5 -18z" />
    <glyph glyph-name="numbersign" unicode="#" 
d="M470 427l-25 -156h102v-64h-112l-33 -207h-77l33 207h-140l-33 -207h-77l33 207h-101v64h111l25 156h-101v64h112l31 197h77l-32 -197h141l31 197h77l-32 -197h102v-64h-112zM253 427l-25 -156h141l24 156h-140z" />
    <glyph glyph-name="dollar" unicode="$" 
d="M541 193q0 -81 -54.5 -133.5t-148.5 -66.5v-126h-73v121q-54 1 -103.5 10t-91.5 27l33 79q36 -15 76 -22.5t79 -7.5q69 0 107.5 29t38.5 81q0 38 -23.5 62t-58.5 41.5t-76 33.5t-76 39.5t-58.5 57.5t-23.5 88q0 75 51.5 126t140.5 64v118h74v-115q47 -1 89 -10t77 -26
l-31 -74q-29 15 -64.5 22t-74.5 7q-63 0 -98 -28t-35 -75q0 -38 24 -60.5t60 -39t78 -32t78 -39t60 -59t24 -92.5z" />
    <glyph glyph-name="percent" unicode="%" horiz-adv-x="970" 
d="M915 203q0 -41 -10 -79.5t-31 -68.5t-53 -48.5t-77 -18.5t-77 18.5t-53 48.5t-31 68.5t-10 79.5t10 79.5t31 68.5t53 48.5t77 18.5t77 -18.5t53 -48.5t31 -68.5t10 -79.5zM398 -11l-67 22l240 688l67 -22zM397 485q0 -41 -10 -79.5t-31 -68.5t-53 -48.5t-77 -18.5
t-77.5 18.5t-53.5 48.5t-31 68.5t-10 79.5t10 79.5t31 68.5t53.5 48.5t77.5 18.5t77 -18.5t53 -48.5t31 -68.5t10 -79.5zM829 205q0 31 -4 60.5t-14 52.5t-26.5 36.5t-40.5 13.5t-40.5 -13.5t-26.5 -36.5t-14.5 -52.5t-4.5 -60.5q0 -32 4.5 -61t14.5 -52t26.5 -36.5
t40.5 -13.5t40.5 13.5t26.5 36.5t14 52t4 61zM311 487q0 31 -4 60.5t-14 52.5t-26.5 36.5t-40.5 13.5t-40.5 -13.5t-26.5 -36.5t-14.5 -52.5t-4.5 -60.5q0 -32 4.5 -61t14.5 -52t26.5 -36.5t40.5 -13.5t40.5 13.5t26.5 36.5t14 52t4 61z" />
    <glyph glyph-name="ampersand" unicode="&#x26;" horiz-adv-x="729" 
d="M583 372v-347q-45 -18 -106.5 -27.5t-125.5 -9.5q-144 0 -222 49t-78 145q0 41 16 73t43 56t62 40t72 26v2q-71 19 -107.5 59.5t-36.5 95.5q0 37 16 67.5t45 52.5t70 34t92 12q104 0 176 -37l-35 -69q-23 12 -52.5 20t-61.5 8q-57 0 -90.5 -24t-33.5 -72q0 -23 11 -43
t29.5 -34t44.5 -22t56 -8q38 0 79 4t84 12l160 32l16 -75zM460 359q-73 -11 -125 -25.5t-85 -35t-48.5 -48t-15.5 -63.5q0 -61 44 -93t128 -32q29 0 55.5 3t46.5 11v283z" />
    <glyph glyph-name="quotesingle" unicode="'" horiz-adv-x="242" 
d="M153 412h-64l-24 261q10 12 24.5 18t31.5 6t31.5 -6t24.5 -18z" />
    <glyph glyph-name="parenleft" unicode="(" horiz-adv-x="391" 
d="M294 -229q-112 106 -174.5 232.5t-62.5 282.5t62.5 282.5t174.5 232.5l70 -41q-86 -100 -130.5 -221t-44.5 -253t44.5 -253t130.5 -221z" />
    <glyph glyph-name="parenright" unicode=")" horiz-adv-x="391" 
d="M334 286q0 -156 -62.5 -282.5t-174.5 -232.5l-70 41q86 100 130.5 221t44.5 253t-44.5 253t-130.5 221l70 41q112 -106 174.5 -232.5t62.5 -282.5z" />
    <glyph glyph-name="asterisk" unicode="*" horiz-adv-x="476" 
d="M425 718q0 -21 -15.5 -36t-38.5 -15t-38 15t-15 36t15 35.5t38 14.5t38.5 -14.5t15.5 -35.5zM292 810q0 -21 -15.5 -35.5t-38.5 -14.5t-38 14.5t-15 35.5t15 35.5t38 14.5t38.5 -14.5t15.5 -35.5zM285 680q0 -18 -13.5 -31t-33.5 -13q-19 0 -32.5 13t-13.5 31t13.5 30.5
t32.5 12.5q20 0 33.5 -12.5t13.5 -30.5zM374 573q0 -21 -15 -35.5t-38 -14.5t-38.5 14.5t-15.5 35.5t15.5 35.5t38.5 14.5t38 -14.5t15 -35.5zM158 718q0 -21 -15.5 -36t-38.5 -15t-38 15t-15 36t15 35.5t38 14.5t38.5 -14.5t15.5 -35.5zM210 573q0 -21 -16 -35.5t-38 -14.5
q-23 0 -38.5 14.5t-15.5 35.5t15.5 35.5t38.5 14.5q22 0 38 -14.5t16 -35.5z" />
    <glyph glyph-name="plus" unicode="+" horiz-adv-x="592" 
d="M341 292v-171h-90v171h-188v78h188v169h90v-169h188v-78h-188z" />
    <glyph glyph-name="comma" unicode="," horiz-adv-x="288" 
d="M81 -145h-76l93 242q12 18 32 27t40 9t37 -9t24 -27z" />
    <glyph glyph-name="hyphen" unicode="-" horiz-adv-x="405" 
d="M58 288v86h288v-86h-288z" />
    <glyph glyph-name="period" unicode="." horiz-adv-x="277" 
d="M216 63q0 -29 -23 -49.5t-55 -20.5t-54.5 20.5t-22.5 49.5t22.5 49.5t54.5 20.5t55 -20.5t23 -49.5z" />
    <glyph glyph-name="slash" unicode="/" horiz-adv-x="511" 
d="M92 -216l-105 38l391 983l105 -39z" />
    <glyph glyph-name="zero" unicode="0" 
d="M570 344q0 -72 -14.5 -137t-45.5 -113.5t-80.5 -77t-118.5 -28.5t-118.5 28.5t-80.5 77t-45.5 113.5t-14.5 137t14.5 137t45.5 113.5t80.5 77t118.5 28.5t118.5 -28.5t80.5 -77t45.5 -113.5t14.5 -137zM446 346q0 59 -6 110.5t-21.5 89.5t-41.5 59.5t-66 21.5t-66 -21.5
t-41.5 -59.5t-21.5 -89.5t-6 -110.5t6 -110.5t21.5 -89.5t41.5 -59.5t66 -21.5t66 21.5t41.5 59.5t21.5 89.5t6 110.5z" />
    <glyph glyph-name="one" unicode="1" 
d="M313 0v558q-42 -19 -98.5 -30.5t-111.5 -15.5l-14 71q101 11 167 40.5t92 64.5h92v-688h-127z" />
    <glyph glyph-name="two" unicode="2" 
d="M37 0l283 335q42 50 62.5 88t20.5 75q0 58 -39.5 88.5t-105.5 30.5q-43 0 -85 -8t-81 -23l-31 74q100 40 214 40q68 0 117 -15t81 -40.5t47 -60.5t15 -75q0 -47 -28.5 -95.5t-78.5 -102.5l-202 -218h317v-93h-506z" />
    <glyph glyph-name="three" unicode="3" 
d="M541 203q0 -49 -22 -89t-60 -68t-90.5 -43t-113.5 -15t-115.5 9t-99.5 28l36 78q34 -14 77.5 -21.5t86.5 -7.5q35 0 66 9t53.5 25.5t35.5 41t13 54.5q0 33 -15.5 57.5t-43 41t-66 25t-84.5 8.5h-19v61q98 7 150.5 42.5t52.5 85.5q0 45 -34.5 69.5t-101.5 24.5
q-83 0 -155 -29l-32 73q92 37 203 37q118 0 182.5 -45t64.5 -120q0 -25 -11 -47.5t-30.5 -42t-45.5 -34.5t-57 -24v-2q37 -9 69 -24.5t55.5 -37.5t37 -51.5t13.5 -68.5z" />
    <glyph glyph-name="four" unicode="4" 
d="M494 149v-149h-117v149h-325v70l322 469h120v-474h76v-65h-76zM379 579q-11 -23 -23 -43t-29 -44l-189 -278h239v263q0 29 1 53.5t3 48.5h-2z" />
    <glyph glyph-name="five" unicode="5" 
d="M549 205q0 -48 -21 -88t-58.5 -68.5t-89.5 -44.5t-115 -16q-57 0 -113 9t-102 28l35 78q36 -15 78 -22t87 -7q76 0 120.5 36.5t44.5 96.5q0 27 -9 52t-32 44.5t-62 31.5t-98 12q-26 0 -57.5 -3t-66.5 -8l39 352h396v-92h-308l-18 -189q21 2 41 3t38 1q72 0 123.5 -15.5
t84 -43t48 -65t15.5 -82.5z" />
    <glyph glyph-name="six" unicode="6" 
d="M571 210q0 -48 -18 -89t-51.5 -70.5t-81 -46t-105.5 -16.5q-64 0 -112.5 18.5t-81.5 53t-49.5 83.5t-16.5 109q0 99 37 175.5t97.5 132t137 90.5t156.5 50l18 -79q-47 -11 -92.5 -29t-84.5 -45t-70.5 -64.5t-50.5 -86.5q23 9 51 15.5t59 6.5q58 0 106 -13t81.5 -39
t52 -65t18.5 -91zM452 212q0 73 -42 108t-116 35q-30 0 -60 -6.5t-53 -17.5q-5 -19 -6.5 -40t-1.5 -44q0 -85 36 -135t108 -50q31 0 56.5 12t42.5 32t26.5 47.5t9.5 58.5z" />
    <glyph glyph-name="seven" unicode="7" 
d="M476 475q-34 -68 -65.5 -137t-58 -132t-47 -116.5t-30.5 -89.5h-154l308 596h-366v92h519z" />
    <glyph glyph-name="eight" unicode="8" 
d="M568 170q0 -40 -19 -73.5t-53.5 -57.5t-82 -37.5t-103.5 -13.5q-52 0 -98.5 12.5t-81.5 35.5t-55.5 57t-20.5 76q0 31 9 57.5t29.5 50t53 44.5t79.5 41q-78 35 -111.5 76t-33.5 95q0 37 17.5 68t48 53t72.5 34t92 12q49 0 91.5 -12t74 -34t49 -52.5t17.5 -67.5
q0 -51 -34 -92t-112 -75q48 -21 81 -43t53.5 -46.5t29 -51t8.5 -56.5zM438 534q0 45 -35.5 72.5t-89.5 27.5q-55 0 -90 -27t-35 -72q0 -21 6.5 -38t21.5 -33t39 -30.5t59 -30.5q70 31 97 62t27 69zM451 171q0 22 -5 41.5t-20.5 38t-43.5 37t-74 38.5q-44 -19 -72 -37.5
t-44 -37.5t-22 -38.5t-6 -40.5q0 -24 12 -44.5t32 -35.5t46 -23.5t55 -8.5q30 0 56 9t45 24t30 35t11 43z" />
    <glyph glyph-name="nine" unicode="9" 
d="M567 436q0 -99 -37 -176t-97.5 -132.5t-137.5 -90t-156 -49.5l-19 82q49 12 95.5 31t86.5 47t71 65t49 85q-23 -10 -52 -16t-61 -6q-58 0 -105.5 12.5t-81.5 38t-52.5 64t-18.5 89.5q0 48 18 88t51.5 69.5t80.5 46t105 16.5q64 0 113 -18.5t82 -53t49.5 -83.5t16.5 -109z
M449 444q0 85 -36.5 135t-108.5 50q-32 0 -57 -11.5t-42 -31.5t-26 -47.5t-9 -58.5q0 -70 42 -104.5t116 -34.5q30 0 60 6.5t53 17.5q5 19 6.5 37.5t1.5 41.5z" />
    <glyph glyph-name="colon" unicode=":" horiz-adv-x="294" 
d="M224 373q0 -29 -22.5 -49.5t-54.5 -20.5t-54.5 20.5t-22.5 49.5t22.5 49.5t54.5 20.5t54.5 -20.5t22.5 -49.5zM224 63q0 -29 -22.5 -49.5t-54.5 -20.5t-54.5 20.5t-22.5 49.5t22.5 49.5t54.5 20.5t54.5 -20.5t22.5 -49.5z" />
    <glyph glyph-name="semicolon" unicode=";" horiz-adv-x="300" 
d="M233 373q0 -29 -23 -49.5t-55 -20.5t-54.5 20.5t-22.5 49.5t22.5 49.5t54.5 20.5t55 -20.5t23 -49.5zM83 -145h-76l93 242q12 18 32 27t40 9t37 -9t24 -27z" />
    <glyph glyph-name="less" unicode="&#x3c;" horiz-adv-x="592" 
d="M63 295v72l466 179v-87l-361 -127v-2l361 -128v-87z" />
    <glyph glyph-name="equal" unicode="=" horiz-adv-x="592" 
d="M63 389v77h466v-77h-466zM63 195v78h466v-78h-466z" />
    <glyph glyph-name="greater" unicode="&#x3e;" horiz-adv-x="592" 
d="M63 115v87l361 128v2l-361 127v87l466 -179v-72z" />
    <glyph glyph-name="question" unicode="?" horiz-adv-x="476" 
d="M463 540q0 -34 -14.5 -61.5t-38.5 -48.5t-56 -35.5t-66 -22.5l-11 -136h-95l-15 170q74 13 119.5 43.5t45.5 80.5q0 49 -36 70.5t-88 21.5q-37 0 -73 -8t-64 -21l-31 69q40 19 88 28.5t100 9.5q48 0 91 -9t75 -28.5t50.5 -50t18.5 -72.5zM307 63q0 -29 -22.5 -49.5
t-54.5 -20.5t-54.5 20.5t-22.5 49.5t22.5 49.5t54.5 20.5t54.5 -20.5t22.5 -49.5z" />
    <glyph glyph-name="at" unicode="@" horiz-adv-x="1008" 
d="M956 373q0 -75 -31 -145t-86.5 -123t-131.5 -85t-167 -32q-64 0 -111.5 18.5t-79.5 50.5t-48 75t-16 93q0 58 18.5 111t53 93.5t85 65t115.5 24.5q51 0 88.5 -14.5t61.5 -32.5l-62 -404q43 13 84 40t73 66t51.5 89t19.5 110q0 54 -18 102t-54 84.5t-90.5 57.5t-127.5 21
q-108 0 -191.5 -36t-140.5 -94.5t-86.5 -133.5t-29.5 -153q0 -74 24.5 -138.5t72 -112t117.5 -75t161 -27.5q115 0 216.5 33.5t183.5 99.5l43 -49q-88 -72 -203 -110t-243 -38q-105 0 -189 30.5t-143 85.5t-91 130t-32 164q0 93 36.5 180.5t105.5 155.5t168 109t224 41
q89 0 158 -26t116 -70.5t71.5 -104t24.5 -126.5zM619 441q-14 7 -32 11.5t-41 4.5q-42 0 -75 -19t-55.5 -51t-34 -73.5t-11.5 -85.5q0 -81 44 -127.5t129 -46.5h17z" />
    <glyph glyph-name="A" unicode="A" horiz-adv-x="712" 
d="M557 0l-67 185h-281l-67 -185h-128l281 688h122l281 -688h-141zM377 502q-8 21 -14 43t-12 45h-2q-6 -23 -12 -45t-14 -43l-90 -248h233z" />
    <glyph glyph-name="B" unicode="B" horiz-adv-x="656" 
d="M606 189q0 -52 -21.5 -90t-61 -62.5t-95 -36.5t-122.5 -12q-65 0 -125 9t-108 28v638q47 19 103.5 28t120.5 9q140 0 211 -49t71 -130q0 -36 -12.5 -62.5t-33.5 -45.5t-47.5 -31t-54.5 -17v-2q31 -6 62.5 -20t56.5 -35.5t40.5 -51t15.5 -67.5zM452 514q0 58 -37 87
t-118 29q-55 0 -97 -14v-227h55q55 0 92.5 8t61 23.5t33.5 39t10 54.5zM474 190q0 72 -51.5 106.5t-167.5 34.5h-55v-254q20 -8 47 -11.5t56 -3.5q37 0 68.5 7t54 22.5t35.5 39.5t13 59z" />
    <glyph glyph-name="C" unicode="C" horiz-adv-x="579" 
d="M543 25q-68 -37 -169 -37q-78 0 -138 28t-100.5 76.5t-61.5 113t-21 138.5t21.5 139t62.5 113t101 76t137 28q101 0 168 -37l-33 -73q-23 12 -53 18t-61 6q-52 0 -90.5 -21t-64 -57.5t-38 -85.5t-12.5 -105q0 -55 13 -103.5t38.5 -84.5t64 -57t89.5 -21q31 0 61 7t53 18z
" />
    <glyph glyph-name="D" unicode="D" horiz-adv-x="698" 
d="M645 349q0 -75 -21 -141t-64 -115t-108.5 -77t-155.5 -28q-63 0 -120 9.5t-103 27.5v638q47 18 101 27.5t117 9.5q91 0 158 -26.5t110.5 -73t64.5 -111t21 -140.5zM510 351q0 134 -51 202t-160 68q-25 0 -48.5 -2.5t-46.5 -10.5v-523q17 -7 43 -11t52 -4q107 0 159 73.5
t52 207.5z" />
    <glyph glyph-name="E" unicode="E" horiz-adv-x="513" 
d="M73 0v688h396v-78h-265v-218h236v-77h-236v-236h265v-79h-396z" />
    <glyph glyph-name="F" unicode="F" horiz-adv-x="506" 
d="M204 610v-218h236v-77h-236v-315h-131v688h395v-78h-264z" />
    <glyph glyph-name="G" unicode="G" horiz-adv-x="711" 
d="M639 25q-42 -18 -101 -27.5t-122 -9.5q-90 0 -158 26t-113.5 73.5t-68.5 114t-23 146.5q0 77 24.5 141.5t71.5 111.5t115 73t156 26q60 0 109 -9.5t94 -28.5l-30 -75q-34 14 -74.5 21.5t-83.5 7.5q-115 0 -180.5 -69.5t-65.5 -203.5q0 -127 58 -200t162 -73q62 0 103 15
v235h-131v72h258v-367z" />
    <glyph glyph-name="H" unicode="H" horiz-adv-x="692" 
d="M487 0v315h-283v-315h-131v688h131v-296h283v296h132v-688h-132z" />
    <glyph glyph-name="I" unicode="I" horiz-adv-x="286" 
d="M77 0v688h132v-688h-132z" />
    <glyph glyph-name="J" unicode="J" horiz-adv-x="286" 
d="M209 100q0 -71 -22 -127.5t-60 -97.5t-88.5 -66t-107.5 -32v82q31 10 57.5 29.5t46 49t31 68t11.5 86.5v596h132v-588z" />
    <glyph glyph-name="K" unicode="K" horiz-adv-x="645" 
d="M481 0l-273 356h-2v-356h-131v688h131v-316h2l273 316h142l-292 -316l306 -372h-156z" />
    <glyph glyph-name="L" unicode="L" horiz-adv-x="486" 
d="M75 0v688h132v-609h248v-79h-380z" />
    <glyph glyph-name="M" unicode="M" horiz-adv-x="921" 
d="M747 0l-60 474q-1 8 -2 20t-1.5 24t-1 22.5t-0.5 15.5h-2q-3 -13 -7.5 -32t-15.5 -50l-169 -474h-71l-168 474q-11 32 -15.5 51t-7.5 31l-2 -1q0 -10 -0.5 -29.5t-4.5 -51.5l-61 -474h-110l98 688h131l157 -458q10 -29 15 -48t7 -30h2q2 6 6.5 25.5t16.5 52.5l163 458
h131l98 -688h-126z" />
    <glyph glyph-name="N" unicode="N" horiz-adv-x="736" 
d="M556 0l-332 471q-19 26 -28 42l-15 28h-2q1 -11 2 -33.5t1 -48.5v-459h-109v688h123l315 -443q19 -26 28.5 -43t15.5 -28h2q-1 11 -2.5 30t-1.5 50v434h110v-688h-107z" />
    <glyph glyph-name="O" unicode="O" horiz-adv-x="732" 
d="M679 344q0 -73 -19 -137.5t-58 -113t-98 -77t-138 -28.5t-138 28.5t-98 77t-58 113t-19 137.5t19 137.5t58 113t98 77t138 28.5t138 -28.5t98 -77t58 -113t19 -137.5zM543 347q0 53 -9.5 102t-30.5 87t-55 61t-82 23t-82 -23t-55 -61t-30.5 -87t-9.5 -102t9.5 -102
t30.5 -87t55 -60.5t82 -22.5t82 22.5t55 60.5t30.5 87t9.5 102z" />
    <glyph glyph-name="P" unicode="P" horiz-adv-x="624" 
d="M583 485q0 -48 -18.5 -87t-55.5 -67t-94 -43.5t-133 -15.5q-40 0 -79 6v-278h-130v663q48 18 101.5 27.5t116.5 9.5q75 0 130 -15.5t91 -44t53.5 -68t17.5 -87.5zM454 486q0 70 -37.5 106.5t-122.5 36.5q-24 0 -47.5 -2.5t-43.5 -9.5v-268q19 -4 39 -5.5t40 -1.5
q92 0 132 38t40 106z" />
    <glyph glyph-name="Q" unicode="Q" horiz-adv-x="732" 
d="M679 344q0 -53 -10.5 -101.5t-31 -90t-51 -74.5t-71.5 -54l139 -146l-100 -76l-120 194q-34 -8 -68 -8q-79 0 -138 28.5t-98 77t-58 113t-19 137.5t19 137.5t58 113t98 77t138 28.5t138 -28.5t98 -77t58 -113t19 -137.5zM543 347q0 53 -9.5 102t-30.5 87t-55 61t-82 23
t-82 -23t-55 -61t-30.5 -87t-9.5 -102t9.5 -102t30.5 -87t55 -60.5t82 -22.5t82 22.5t55 60.5t30.5 87t9.5 102z" />
    <glyph glyph-name="R" unicode="R" horiz-adv-x="641" 
d="M456 0l-113 193q-23 39 -58.5 71t-79.5 44v-308h-130v663q46 18 101.5 27.5t115.5 9.5q146 0 218.5 -54.5t72.5 -148.5q0 -75 -55.5 -124.5t-154.5 -60.5v-2q29 -17 55.5 -46.5t46.5 -59.5l132 -204h-151zM451 495q0 66 -37.5 101t-119.5 35q-50 0 -89 -14v-259
q14 -3 31.5 -4.5t33.5 -1.5q91 0 136 40t45 103z" />
    <glyph glyph-name="S" unicode="S" horiz-adv-x="558" 
d="M509 193q0 -46 -19 -84t-54 -65t-84 -41.5t-109 -14.5q-57 0 -109 9t-97 28l33 80q36 -15 76 -22.5t78 -7.5q69 0 107.5 28.5t38.5 80.5q0 38 -23.5 62t-58.5 41.5t-76 33.5t-76 39t-58.5 57.5t-23.5 88.5q0 43 17.5 78.5t50 61t78.5 40t103 14.5q107 0 184 -37l-32 -75
q-57 29 -137 29q-63 0 -98 -28t-35 -74q0 -38 24 -60.5t60 -39t78 -32t78 -38.5t60 -59t24 -93z" />
    <glyph glyph-name="T" unicode="T" horiz-adv-x="540" 
d="M335 610v-610h-131v610h-173v78h478v-78h-174z" />
    <glyph glyph-name="U" unicode="U" horiz-adv-x="673" 
d="M600 218q0 -56 -18.5 -98.5t-53 -72t-83.5 -44.5t-109 -15t-109 15t-83 44.5t-52.5 72t-18.5 98.5v470h131v-471q0 -65 36 -101.5t101 -36.5t101.5 36.5t36.5 101.5v471h121v-470z" />
    <glyph glyph-name="V" unicode="V" horiz-adv-x="642" 
d="M378 0h-109l-251 688h142l144 -454q6 -19 12 -45t10 -46h2q4 18 9.5 43t13.5 48l146 454h129z" />
    <glyph glyph-name="W" unicode="W" horiz-adv-x="971" 
d="M747 0h-111l-132 439q-9 30 -12 47.5t-5 30.5h-2q-1 -7 -4.5 -29.5t-11.5 -48.5l-130 -439h-111l-197 688h134l114 -464q8 -29 10 -46t4 -32h2q3 15 6 32t11 46l133 464h93l133 -464q6 -20 9.5 -40.5t5.5 -37.5h2q2 14 4.5 32t9.5 46l118 464h122z" />
    <glyph glyph-name="X" unicode="X" horiz-adv-x="642" 
d="M474 0l-156 265h-2l-160 -265h-138l233 354l-210 334h144l138 -239h2l150 239h130l-215 -320l234 -368h-150z" />
    <glyph glyph-name="Y" unicode="Y" horiz-adv-x="613" 
d="M372 299v-299h-131v299l-229 389h140l159 -293h2l164 293h126z" />
    <glyph glyph-name="Z" unicode="Z" horiz-adv-x="525" 
d="M22 0l290 610h-270v78h442l-285 -609h292v-79h-469z" />
    <glyph glyph-name="bracketleft" unicode="[" horiz-adv-x="365" 
d="M74 -215v1000h248v-65h-134v-869h134v-66h-248z" />
    <glyph glyph-name="backslash" unicode="\" horiz-adv-x="511" 
d="M419 -216l-391 982l105 39l391 -983z" />
    <glyph glyph-name="bracketright" unicode="]" horiz-adv-x="365" 
d="M43 -215v66h134v869h-134v65h248v-1000h-248z" />
    <glyph glyph-name="asciicircum" unicode="^" horiz-adv-x="548" 
d="M442 456l-168 144l-168 -144l-53 46l170 175q21 21 51 21t51 -21l170 -175z" />
    <glyph glyph-name="underscore" unicode="_" horiz-adv-x="621" 
d="M-5 -175v65h631v-65h-631z" />
    <glyph glyph-name="grave" unicode="`" horiz-adv-x="270" 
d="M143 598l-139 134q9 12 24 17t34 5q34 0 65 -17l88 -139h-72z" />
    <glyph glyph-name="a" unicode="a" horiz-adv-x="590" 
d="M523 25q-42 -18 -100.5 -27.5t-122.5 -9.5q-59 0 -106.5 9.5t-81 29.5t-52 51t-18.5 74q0 54 29 90t78.5 58t115 33.5t139.5 17.5v30q0 54 -33.5 75.5t-96.5 21.5q-42 0 -86 -8.5t-80 -22.5l-28 67q47 18 99.5 27.5t108.5 9.5q54 0 97.5 -10t74 -32.5t47 -57.5t16.5 -85
v-341zM404 296q-54 -5 -99 -13t-76.5 -23.5t-49 -40.5t-17.5 -64q0 -52 38.5 -76t103.5 -24q28 0 54 4t46 12v225z" />
    <glyph glyph-name="b" unicode="b" horiz-adv-x="621" 
d="M574 281q0 -67 -19.5 -121t-58 -92.5t-95 -59t-130.5 -20.5q-57 0 -109.5 9.5t-94.5 27.5v760h125v-257q27 11 59.5 17t67.5 6q58 0 105.5 -19t80.5 -54t51 -85t18 -112zM447 275q0 94 -39 150.5t-119 56.5q-27 0 -51.5 -4t-45.5 -13v-391q20 -8 41 -11t43 -3
q43 0 75.5 15.5t53.5 44t31.5 68t10.5 87.5z" />
    <glyph glyph-name="c" unicode="c" horiz-adv-x="488" 
d="M456 25q-62 -37 -153 -37q-62 0 -110 21.5t-80.5 59t-49.5 89.5t-17 112t17 111.5t49.5 89t80.5 59t110 21.5q90 0 152 -37l-29 -66q-20 14 -45 20t-54 6q-38 0 -66.5 -16t-47 -43t-28 -64t-9.5 -79t9.5 -79t28 -64.5t47 -43.5t66.5 -16q59 0 98 26z" />
    <glyph glyph-name="d" unicode="d" horiz-adv-x="621" 
d="M554 25q-43 -19 -99.5 -28t-115.5 -9q-141 0 -217 72t-76 207q0 63 19.5 115t55.5 89t87.5 57.5t116.5 20.5q29 0 56 -3.5t48 -8.5v248h125v-760zM429 473q-17 4 -36.5 6.5t-39.5 2.5q-92 0 -135.5 -57t-43.5 -156q0 -96 40 -151.5t129 -55.5q23 0 45.5 3t40.5 11v397z
" />
    <glyph glyph-name="e" unicode="e" horiz-adv-x="619" 
d="M171 227q8 -80 59 -119.5t128 -39.5q44 0 87.5 8.5t76.5 22.5l29 -73q-44 -19 -97 -28.5t-111 -9.5q-67 0 -122 18t-94 53.5t-60 88.5t-21 124q0 67 19.5 119.5t55.5 87.5t86 53.5t111 18.5q124 0 189.5 -68.5t65.5 -203.5zM450 324q0 81 -36.5 119.5t-101.5 38.5
q-33 0 -60.5 -12t-47.5 -36t-31 -59.5t-11 -81.5v-6z" />
    <glyph glyph-name="f" unicode="f" horiz-adv-x="383" 
d="M244 468v-468h-125v468h-82v71h82v68q0 81 53 130t153 49h13q9 0 20 -1v-71h-12q-42 0 -72 -24t-30 -75v-76h114v-71h-114z" />
    <glyph glyph-name="g" unicode="g" horiz-adv-x="621" 
d="M554 -10q0 -54 -18.5 -94.5t-53 -67.5t-83 -41t-109.5 -14q-59 0 -115.5 10.5t-101.5 29.5l33 74q35 -15 80.5 -24t91.5 -9q72 0 111.5 34t39.5 97v29q-24 -11 -58.5 -16t-69.5 -5q-57 0 -104 18.5t-80.5 53t-52 83.5t-18.5 110q0 65 19 119t57.5 92.5t95.5 60t132 21.5
q57 0 108 -9.5t96 -27.5v-524zM429 466q-18 8 -39.5 11.5t-45.5 3.5q-85 0 -127.5 -58t-42.5 -160q0 -100 41.5 -151t122.5 -51q24 0 49.5 5t41.5 13v387z" />
    <glyph glyph-name="h" unicode="h" 
d="M429 0v353q0 62 -31.5 94t-94.5 32q-29 0 -57.5 -5.5t-53.5 -16.5v-457h-125v785h125v-264q31 14 67.5 21.5t74.5 7.5q107 0 164 -49.5t57 -147.5v-353h-126z" />
    <glyph glyph-name="i" unicode="i" horiz-adv-x="270" 
d="M72 0v539h126v-539h-126zM208 692q0 -25 -21.5 -42.5t-51.5 -17.5t-51.5 17.5t-21.5 42.5t21.5 42.5t51.5 17.5t51.5 -17.5t21.5 -42.5z" />
    <glyph glyph-name="j" unicode="j" horiz-adv-x="274" 
d="M212 691q0 -25 -21.5 -42.5t-51.5 -17.5t-51.5 17.5t-21.5 42.5t21.5 42.5t51.5 17.5t51.5 -17.5t21.5 -42.5zM202 74q0 -63 -18.5 -113.5t-51.5 -88t-78 -61t-98 -32.5v79q58 22 89 76.5t31 130.5v474h126v-465z" />
    <glyph glyph-name="k" unicode="k" horiz-adv-x="585" 
d="M435 0l-238 293h-2v-293h-124v785h124v-480h2l226 234h133l-241 -234l267 -305h-147z" />
    <glyph glyph-name="l" unicode="l" horiz-adv-x="269" 
d="M72 0v785h125v-785h-125z" />
    <glyph glyph-name="m" unicode="m" horiz-adv-x="959" 
d="M769 0v361q0 57 -30.5 87t-89.5 30q-34 0 -60 -12t-48 -32v-434h-123v381q0 46 -31.5 71.5t-93.5 25.5q-29 0 -55 -4t-49 -12v-462h-122v513q99 38 221 38q66 0 115.5 -16.5t83.5 -46.5q38 30 83.5 46.5t102.5 16.5q103 0 161 -49t58 -141v-361h-123z" />
    <glyph glyph-name="n" unicode="n" 
d="M429 0v354q0 65 -34.5 94.5t-100.5 29.5q-26 0 -53 -4t-49 -12v-462h-125v513q50 20 109 29t120 9t109 -11t81.5 -35t51 -61.5t17.5 -89.5v-354h-126z" />
    <glyph glyph-name="o" unicode="o" horiz-adv-x="628" 
d="M582 270q0 -60 -17.5 -112t-51.5 -89.5t-84 -59t-115 -21.5t-115 21.5t-84 59t-51.5 89.5t-17.5 112t17.5 111.5t51.5 89t84 59t115 21.5t115 -21.5t84 -59t51.5 -89t17.5 -111.5zM454 272q0 43 -8 81t-24.5 66t-43.5 44t-64 16q-38 0 -64.5 -16t-43 -44t-24.5 -66
t-8 -81t8 -81t24.5 -66t43 -44t64.5 -16q37 0 64 16t43.5 44t24.5 66t8 81z" />
    <glyph glyph-name="p" unicode="p" horiz-adv-x="621" 
d="M574 277q0 -66 -19 -119t-55 -90.5t-88.5 -57.5t-119.5 -20q-25 0 -52.5 3t-47.5 8v-216h-125v729q45 18 99.5 27.5t114.5 9.5q141 0 217 -72.5t76 -201.5zM447 273q0 97 -39.5 152t-130.5 55q-55 0 -85 -13v-397q17 -5 36.5 -7t39.5 -2q88 0 133.5 55.5t45.5 156.5z" />
    <glyph glyph-name="q" unicode="q" horiz-adv-x="621" 
d="M429 -215v227q-25 -11 -58 -17t-71 -6q-56 0 -103 19t-80.5 53.5t-52 84t-18.5 111.5q0 65 18.5 119t56 93t95 60.5t134.5 21.5q57 0 108 -9.5t96 -27.5v-729h-125zM429 466q-36 15 -85 15q-85 0 -127.5 -57.5t-42.5 -159.5q0 -97 40 -150t122 -53q26 0 51 5t42 13v387z
" />
    <glyph glyph-name="r" unicode="r" horiz-adv-x="385" 
d="M348 467q-17 5 -36 7.5t-38 2.5q-24 0 -46 -3.5t-36 -10.5v-463h-125v514q52 19 110 28t138 9q16 0 32 -0.5t28 -2.5z" />
    <glyph glyph-name="s" unicode="s" horiz-adv-x="487" 
d="M443 153q0 -37 -16 -67.5t-45.5 -52t-71.5 -33.5t-94 -12q-48 0 -93.5 9t-86.5 28l33 72q28 -14 63.5 -22.5t69.5 -8.5q54 0 82.5 22.5t28.5 60.5q0 30 -19.5 48t-48.5 31t-63.5 25t-63.5 29.5t-48.5 44t-19.5 68.5q0 35 15 63.5t42 49t64.5 32t82.5 11.5q48 0 91.5 -9
t81.5 -28l-33 -66q-25 13 -55.5 20.5t-61.5 7.5q-47 0 -74.5 -20.5t-27.5 -57.5q0 -28 20 -45.5t49.5 -30.5t64.5 -25.5t64.5 -30t49.5 -44.5t20 -69z" />
    <glyph glyph-name="t" unicode="t" horiz-adv-x="394" 
d="M358 1q-14 -5 -32 -8.5t-38 -3.5q-46 0 -78 12.5t-52.5 33.5t-29.5 48.5t-9 57.5v327h-82v71h82v121l125 32v-153h114v-71h-114v-329q0 -28 20 -49t60 -21q16 0 34 5v-73z" />
    <glyph glyph-name="u" unicode="u" horiz-adv-x="611" 
d="M544 26q-96 -38 -226 -38q-59 0 -105.5 10.5t-78.5 34t-49.5 61.5t-17.5 92v353h125v-355q0 -61 33 -89t94 -28q59 0 100 17v455h125v-513z" />
    <glyph glyph-name="v" unicode="v" horiz-adv-x="582" 
d="M355 0h-121l-211 539h137l120 -360q7 -21 11.5 -43.5t6.5 -34.5h2q2 14 7.5 36t12.5 42l120 360h121z" />
    <glyph glyph-name="w" unicode="w" horiz-adv-x="916" 
d="M708 0h-116l-115 352q-7 20 -10 39.5t-5 30.5h-2q-2 -12 -5.5 -31.5t-9.5 -38.5l-119 -352h-116l-180 539h129l103 -360q8 -30 10 -46.5t4 -27.5h2q2 11 6 32t11 42l117 360h110l113 -360q6 -19 10 -40.5t6 -33.5h2q2 12 5 32.5t9 41.5l106 360h115z" />
    <glyph glyph-name="x" unicode="x" horiz-adv-x="590" 
d="M428 0l-137 205h-2l-138 -205h-133l210 281l-188 258h137l123 -183h2l127 183h123l-192 -252l212 -287h-144z" />
    <glyph glyph-name="y" unicode="y" horiz-adv-x="582" 
d="M268 -215h-136l104 215l-213 539h136l118 -362q8 -26 12.5 -46t6.5 -34h2q2 11 7 33.5t13 46.5l125 362h118z" />
    <glyph glyph-name="z" unicode="z" horiz-adv-x="493" 
d="M29 0l255 468h-235v71h398l-248 -468h256v-71h-426z" />
    <glyph glyph-name="braceleft" unicode="{" horiz-adv-x="406" 
d="M337 -215q-111 0 -165 51t-54 142v173q0 45 -16.5 71.5t-60.5 31.5v64q44 5 60.5 31.5t16.5 71.5v171q0 91 54 142t165 51h26v-63q-38 0 -63 -8.5t-40 -25t-21 -40.5t-6 -54v-169q0 -56 -18.5 -89t-65.5 -49v-2q47 -16 65.5 -48.5t18.5 -88.5v-172q0 -30 6 -53.5t21 -40
t40 -25t63 -8.5v-64h-26z" />
    <glyph glyph-name="bar" unicode="|" horiz-adv-x="256" 
d="M73 -215v1000h110v-1000h-110z" />
    <glyph glyph-name="braceright" unicode="}" horiz-adv-x="406" 
d="M363 254q-44 -5 -60.5 -31.5t-16.5 -71.5v-173q0 -91 -54 -142t-165 -51h-26v64q38 0 63 8.5t40 25t21 40t6 53.5v172q0 56 18 88.5t65 48.5v2q-47 16 -65 49t-18 89v169q0 30 -6 54t-21 40.5t-40 25t-63 8.5v63h26q111 0 165 -51t54 -142v-171q0 -45 16.5 -71.5
t60.5 -31.5v-64z" />
    <glyph glyph-name="asciitilde" unicode="~" horiz-adv-x="548" 
d="M495 397q-5 -27 -15 -50t-26.5 -40t-40 -27t-53.5 -10q-27 0 -47.5 10t-38.5 21.5t-37 21.5t-44 10q-29 0 -46.5 -17.5t-24.5 -44.5l-69 23q4 27 14.5 50t27 40t40 27t53.5 10q27 0 47.5 -10t38.5 -21.5t37 -21.5t44 -10q29 0 46.5 17.5t24.5 44.5z" />
    <glyph glyph-name="uni00A0" unicode="&#xa0;" horiz-adv-x="293" 
 />
    <glyph glyph-name="exclamdown" unicode="&#xa1;" horiz-adv-x="316" 
d="M246 410q0 -29 -23 -49.5t-55 -20.5t-54.5 20.5t-22.5 49.5t22.5 49.5t54.5 20.5t55 -20.5t23 -49.5zM94 -215l27 452h95l27 -452h-149z" />
    <glyph glyph-name="cent" unicode="&#xa2;" 
d="M490 136q-50 -29 -123 -32v-104h-71v108q-89 14 -142.5 74.5t-53.5 163.5q0 49 14.5 89.5t40.5 70.5t62 49t79 26v107h71v-103q71 -2 123 -32l-28 -63q-19 11 -41 17t-48 6q-76 0 -114 -46.5t-38 -119.5q0 -78 38.5 -122t113.5 -44q50 0 89 22z" />
    <glyph glyph-name="sterling" unicode="&#xa3;" 
d="M76 0q49 53 83.5 116.5t34.5 127.5q0 23 -3.5 43.5t-8.5 39.5h-114v70h92q-8 23 -13.5 47t-5.5 53q0 49 18.5 87t51.5 63.5t79 39t100 13.5q95 0 171 -37l-29 -70q-25 12 -55.5 19t-62.5 7q-69 0 -111 -34t-42 -98q0 -26 3.5 -47.5t8.5 -42.5h186v-70h-170q3 -17 5 -37
t2 -43q0 -19 -4.5 -40t-11.5 -41.5t-16.5 -39.5t-19.5 -33h327v-93h-495z" />
    <glyph glyph-name="currency" unicode="&#xa4;" 
d="M538 94l-90 78q-55 -47 -137 -47q-81 0 -137 47l-90 -78l-46 53l87 76q-32 50 -32 114t32 114l-87 76l46 53l90 -79q27 23 62 35.5t75 12.5t75 -12.5t62 -35.5l90 79l46 -53l-87 -76q16 -25 24.5 -53.5t8.5 -60.5q0 -64 -33 -114l87 -76zM427 338q0 31 -9 57.5t-24.5 45
t-36.5 29t-46 10.5t-46 -10.5t-36.5 -29t-24 -45t-8.5 -57.5q0 -32 8.5 -58t24 -44.5t36.5 -29t46 -10.5t46 10.5t36.5 29t24.5 44.5t9 58z" />
    <glyph glyph-name="yen" unicode="&#xa5;" 
d="M459 447h108v-52h-137l-59 -104h196v-52h-196v-239h-121v239h-195v52h195l-59 104h-136v52h107l-136 241h134l154 -311h2l161 311h119z" />
    <glyph glyph-name="brokenbar" unicode="&#xa6;" horiz-adv-x="256" 
d="M73 388v397h110v-397h-110zM73 -215v396h110v-396h-110z" />
    <glyph glyph-name="section" unicode="&#xa7;" 
d="M564 226q0 -27 -10 -50.5t-27.5 -43.5t-41.5 -37.5t-52 -30.5q33 -24 54 -54t21 -70q0 -37 -18 -67.5t-48.5 -52.5t-72 -34t-88.5 -12t-95.5 9.5t-84.5 27.5l34 73q26 -14 61 -21.5t68 -7.5q51 0 84.5 24t33.5 61q0 31 -24 54.5t-60 44t-78 41.5t-78 47.5t-60 62
t-24 84.5q0 54 36.5 95t92.5 69q-26 21 -42 47.5t-16 60.5t16 62.5t44.5 49t66.5 31.5t83 11t87 -9.5t77 -27.5l-32 -68q-23 13 -54.5 21.5t-63.5 8.5q-51 0 -78 -23.5t-27 -55.5q0 -30 23.5 -52t58.5 -41.5t76 -39.5t76 -45.5t58.5 -59.5t23.5 -82zM457 216q0 33 -19 57.5
t-48.5 45t-66 38.5t-71.5 38q-38 -20 -64.5 -46t-26.5 -62q0 -32 18 -56.5t46.5 -45.5t64.5 -39.5t71 -37.5q40 19 68 44.5t28 63.5z" />
    <glyph glyph-name="dieresis" unicode="&#xa8;" horiz-adv-x="270" 
d="M284 657q0 -21 -17 -36t-40 -15t-39.5 15t-16.5 36t16.5 36t39.5 15t40 -15t17 -36zM99 657q0 -21 -17 -36t-40 -15t-39.5 15t-16.5 36t16.5 36t39.5 15t40 -15t17 -36z" />
    <glyph glyph-name="copyright" unicode="&#xa9;" horiz-adv-x="879" 
d="M825 344q0 -74 -30.5 -139t-83 -113t-122.5 -76t-150 -28t-150 28t-122.5 76t-82.5 113t-30 139t30 139t82.5 113t122.5 76t150 28t150 -28t122.5 -76t83 -113t30.5 -139zM752 345q0 62 -24.5 116t-67 94.5t-99.5 64t-122 23.5t-122 -23.5t-99 -64t-66.5 -94.5
t-24.5 -116t24.5 -116t66.5 -94.5t99 -64t122 -23.5t122 23.5t99.5 64t67 94.5t24.5 116zM547 167q-17 -11 -43 -16t-55 -5q-45 0 -79.5 16t-57.5 44t-34.5 64t-11.5 77q0 39 11.5 75.5t34.5 64.5t57.5 44.5t79.5 16.5q33 0 56.5 -5.5t41.5 -15.5l-18 -43q-11 6 -28.5 10
t-38.5 4q-33 0 -56.5 -13t-38 -34t-21.5 -48.5t-7 -55.5q0 -29 7.5 -55.5t23 -47t38.5 -33t54 -12.5q20 0 36.5 4t29.5 10z" />
    <glyph glyph-name="ordfeminine" unicode="&#xaa;" horiz-adv-x="434" 
d="M375 360q-27 -12 -68.5 -19t-86.5 -7q-41 0 -74 6t-57 19.5t-37 34.5t-13 50q0 36 19.5 59t54 37t80 21t98.5 11v19q0 29 -20.5 44t-66.5 15q-29 0 -58 -6t-55 -16l-22 47q67 25 146 25q160 0 160 -120v-220zM291 531q-39 -3 -70 -8t-53 -14.5t-34 -24.5t-12 -38
q0 -34 26.5 -50t71.5 -16q43 0 71 11v140z" />
    <glyph glyph-name="guillemotleft" unicode="&#xab;" horiz-adv-x="590" 
d="M456 110l-185 224l185 224l68 -41l-155 -183l155 -183zM237 110l-184 224l184 224l68 -41l-154 -183l154 -183z" />
    <glyph glyph-name="logicalnot" unicode="&#xac;" horiz-adv-x="592" 
d="M439 121v171h-376v78h466v-249h-90z" />
    <glyph glyph-name="uni00AD" unicode="&#xad;" horiz-adv-x="405" 
d="M58 288v86h288v-86h-288z" />
    <glyph glyph-name="registered" unicode="&#xae;" horiz-adv-x="879" 
d="M825 344q0 -74 -30.5 -139t-83 -113t-122.5 -76t-150 -28t-150 28t-122.5 76t-82.5 113t-30 139t30 139t82.5 113t122.5 76t150 28t150 -28t122.5 -76t83 -113t30.5 -139zM752 345q0 62 -24.5 116t-67 94.5t-99.5 64t-122 23.5t-122 -23.5t-99 -64t-66.5 -94.5
t-24.5 -116t24.5 -116t66.5 -94.5t99 -64t122 -23.5t122 23.5t99.5 64t67 94.5t24.5 116zM519 155l-73 124q-11 18 -25 31t-34 19v-174h-69v377q23 11 52.5 16.5t59.5 5.5q74 0 114 -29t40 -86q0 -41 -29.5 -70t-78.5 -37v-2q13 -10 22.5 -22t17.5 -25l83 -128h-80zM514 437
q0 76 -83 76q-12 0 -23 -2t-21 -5v-147q7 -2 16 -2.5t18 -0.5q44 0 68.5 23t24.5 58z" />
    <glyph glyph-name="macron" unicode="&#xaf;" horiz-adv-x="270" 
d="M-8 614v65h286v-65h-286z" />
    <glyph glyph-name="degree" unicode="&#xb0;" horiz-adv-x="435" 
d="M379 541q0 -33 -12.5 -62.5t-34.5 -51.5t-51.5 -35t-62.5 -13t-62.5 13t-51.5 35t-35 51.5t-13 62.5t13 62.5t35 51.5t51.5 34.5t62.5 12.5t62.5 -12.5t51.5 -34.5t34.5 -51.5t12.5 -62.5zM318 541q0 42 -29 70.5t-71 28.5t-71 -28.5t-29 -70.5t29 -71t71 -29t71 29
t29 71z" />
    <glyph glyph-name="plusminus" unicode="&#xb1;" horiz-adv-x="592" 
d="M341 319v-168h-90v168h-188v72h188v165h90v-165h188v-72h-188zM63 0v72h466v-72h-466z" />
    <glyph glyph-name="twosuperior" unicode="&#xb2;" horiz-adv-x="402" 
d="M21 476l184 204q26 29 36.5 50.5t10.5 41.5q0 30 -22.5 49t-67.5 19q-26 0 -50 -5t-47 -13l-19 51q28 11 62.5 17.5t70.5 6.5q45 0 76 -9.5t51 -26t29 -37.5t9 -44q0 -29 -17 -59t-49 -62l-117 -120h187v-63h-327z" />
    <glyph glyph-name="threesuperior" unicode="&#xb3;" horiz-adv-x="402" 
d="M354 598q0 -30 -13 -54t-37 -41t-57 -26.5t-72 -9.5q-86 0 -144 25l22 52q21 -9 48 -14t56 -5q48 0 75.5 19.5t27.5 53.5q0 21 -11 35.5t-29 23.5t-40.5 12.5t-45.5 3.5h-17v42q61 4 95.5 24t34.5 49q0 28 -24 40t-60 12q-25 0 -50 -4.5t-46 -12.5l-19 50q61 24 133 24
q31 0 59 -6t49 -18.5t33.5 -31.5t12.5 -44q0 -18 -8 -32.5t-20 -25.5t-27 -19t-28 -13v-2q19 -5 37 -14t32.5 -22t23.5 -30.5t9 -40.5z" />
    <glyph glyph-name="acute" unicode="&#xb4;" horiz-adv-x="270" 
d="M127 598h-72l89 139q31 17 64 17q19 0 34 -5t24 -17z" />
    <glyph glyph-name="mu" unicode="&#xb5;" horiz-adv-x="611" 
d="M544 26q-42 -19 -94.5 -28.5t-109.5 -9.5q-40 0 -78.5 8t-69.5 25v-236h-125v754h125v-447q25 -16 57 -23.5t64 -7.5q29 0 56.5 4t49.5 14v460h125v-513z" />
    <glyph glyph-name="paragraph" unicode="&#xb6;" horiz-adv-x="706" 
d="M520 -215v827q-29 8 -64.5 12t-67.5 4q-21 0 -34 -1t-24 -3v-839h-111v492q-44 10 -77 30.5t-55 47t-33 58t-11 65.5q0 61 29 103t76.5 68.5t109 38.5t126.5 12q69 0 132.5 -10t114.5 -28v-877h-111z" />
    <glyph glyph-name="periodcentered" unicode="&#xb7;" horiz-adv-x="276" 
d="M215 332q0 -29 -22.5 -49.5t-54.5 -20.5t-54.5 20.5t-22.5 49.5t22.5 49.5t54.5 20.5t54.5 -20.5t22.5 -49.5z" />
    <glyph glyph-name="cedilla" unicode="&#xb8;" horiz-adv-x="270" 
d="M275 -124q0 -41 -50.5 -61.5t-140.5 -20.5q-24 0 -44 1.5t-40 3.5l23 42q27 -3 54 -3q50 0 81 9.5t31 28.5q0 30 -76 30h-29q-14 0 -30 -2l21 38q33 3 69 3q71 0 101 -19t30 -50z" />
    <glyph glyph-name="onesuperior" unicode="&#xb9;" horiz-adv-x="402" 
d="M204 476v322q-25 -9 -61.5 -16.5t-72.5 -9.5l-10 49q63 5 107.5 23.5t63.5 43.5h64v-412h-91z" />
    <glyph glyph-name="ordmasculine" unicode="&#xba;" horiz-adv-x="448" 
d="M405 517q0 -41 -13 -74.5t-37 -57.5t-57.5 -37.5t-73.5 -13.5q-41 0 -74 13.5t-57 37.5t-37 57.5t-13 74.5q0 40 13 74t37 58t57 37.5t74 13.5q40 0 73.5 -13.5t57.5 -37.5t37 -58t13 -74zM317 519q0 57 -22.5 94t-70.5 37t-70.5 -37t-22.5 -94t22.5 -94t70.5 -37
t70.5 37t22.5 94z" />
    <glyph glyph-name="guillemotright" unicode="&#xbb;" horiz-adv-x="590" 
d="M134 110l-68 41l155 183l-155 183l68 41l185 -224zM353 110l-68 41l154 183l-154 183l68 41l184 -224z" />
    <glyph glyph-name="onequarter" unicode="&#xbc;" horiz-adv-x="938" 
d="M848 87v-87h-86v87h-206v47l208 278h84v-279h47v-46h-47zM357 -16l-66 31l311 689l66 -30zM204 276v322q-25 -9 -61.5 -16.5t-72.5 -9.5l-10 49q63 5 107.5 23.5t63.5 43.5h64v-412h-91zM763 339q-8 -13 -17.5 -27.5t-18.5 -27.5l-112 -151h148v147q0 14 0.5 29.5
t1.5 29.5h-2z" />
    <glyph glyph-name="onehalf" unicode="&#xbd;" horiz-adv-x="938" 
d="M557 0l184 204q26 29 36.5 50.5t10.5 41.5q0 30 -22.5 49t-67.5 19q-26 0 -49.5 -5t-46.5 -13l-20 51q28 11 62.5 17.5t70.5 6.5q45 0 76 -9.5t51 -26t29 -37.5t9 -44q0 -29 -17 -59t-49 -62l-117 -120h187v-63h-327zM321 -16l-66 31l311 689l66 -30zM204 276v322
q-25 -9 -61.5 -16.5t-72.5 -9.5l-10 49q63 5 107.5 23.5t63.5 43.5h64v-412h-91z" />
    <glyph glyph-name="threequarters" unicode="&#xbe;" horiz-adv-x="938" 
d="M848 87v-87h-86v87h-206v47l208 278h84v-279h47v-46h-47zM372 -16l-66 31l311 689l66 -30zM763 339q-8 -13 -17.5 -27.5t-18.5 -27.5l-112 -151h148v147q0 14 0.5 29.5t1.5 29.5h-2zM354 398q0 -30 -13 -54t-37 -41t-57 -26.5t-72 -9.5q-86 0 -144 25l22 52q21 -9 48 -14
t56 -5q48 0 75.5 19.5t27.5 53.5q0 21 -11 35.5t-29 23.5t-40.5 12.5t-45.5 3.5h-17v42q61 4 95.5 24t34.5 49q0 28 -24 40t-60 12q-25 0 -50 -4.5t-46 -12.5l-19 50q61 24 133 24q31 0 59 -6t49 -18.5t33.5 -31.5t12.5 -44q0 -18 -8 -32.5t-20 -25.5t-27 -19t-28 -13v-2
q19 -5 37 -14t32.5 -22t23.5 -30.5t9 -40.5z" />
    <glyph glyph-name="questiondown" unicode="&#xbf;" horiz-adv-x="476" 
d="M350 414q0 -29 -22.5 -49.5t-54.5 -20.5t-54.5 20.5t-22.5 49.5t22.5 49.5t54.5 20.5t54.5 -20.5t22.5 -49.5zM463 -185q-40 -19 -88 -28.5t-100 -9.5q-48 0 -91 9t-75 28.5t-50.5 50t-18.5 72.5q0 34 14.5 61t38.5 48t55.5 36t66.5 23l11 136h95l15 -171
q-74 -13 -119.5 -43t-45.5 -80q0 -25 9.5 -42.5t26.5 -28.5t39.5 -16t48.5 -5q37 0 73 8t64 21z" />
    <glyph glyph-name="Agrave" unicode="&#xc0;" horiz-adv-x="712" 
d="M557 0l-67 185h-281l-67 -185h-128l281 688h122l281 -688h-141zM377 502q-8 21 -14 43t-12 45h-2q-6 -23 -12 -45t-14 -43l-90 -248h233zM336 747l-139 134q9 12 24 17t34 5q34 0 65 -17l88 -139h-72z" />
    <glyph glyph-name="Aacute" unicode="&#xc1;" horiz-adv-x="712" 
d="M557 0l-67 185h-281l-67 -185h-128l281 688h122l281 -688h-141zM377 502q-8 21 -14 43t-12 45h-2q-6 -23 -12 -45t-14 -43l-90 -248h233zM372 747h-72l89 139q31 17 64 17q19 0 34 -5t24 -17z" />
    <glyph glyph-name="Acircumflex" unicode="&#xc2;" horiz-adv-x="712" 
d="M557 0l-67 185h-281l-67 -185h-128l281 688h122l281 -688h-141zM377 502q-8 21 -14 43t-12 45h-2q-6 -23 -12 -45t-14 -43l-90 -248h233zM467 739l-111 81l-111 -81l-37 34l105 99q19 17 43 17t43 -17l105 -99z" />
    <glyph glyph-name="Atilde" unicode="&#xc3;" horiz-adv-x="712" 
d="M557 0l-67 185h-281l-67 -185h-128l281 688h122l281 -688h-141zM377 502q-8 21 -14 43t-12 45h-2q-6 -23 -12 -45t-14 -43l-90 -248h233zM509 841q-6 -38 -27 -64t-64 -26q-20 0 -33.5 6.5t-26 14.5t-25 14.5t-28.5 6.5q-19 0 -29 -12t-14 -29l-53 16q6 38 27.5 64
t64.5 26q19 0 33 -6.5t26 -14.5t24 -14.5t29 -6.5q19 0 29 12t14 29z" />
    <glyph glyph-name="Adieresis" unicode="&#xc4;" horiz-adv-x="712" 
d="M557 0l-67 185h-281l-67 -185h-128l281 688h122l281 -688h-141zM377 502q-8 21 -14 43t-12 45h-2q-6 -23 -12 -45t-14 -43l-90 -248h233zM504 806q0 -21 -17 -36t-40 -15t-39.5 15t-16.5 36t16.5 36t39.5 15t40 -15t17 -36zM319 806q0 -21 -17 -36t-40 -15t-39.5 15
t-16.5 36t16.5 36t39.5 15t40 -15t17 -36z" />
    <glyph glyph-name="Aring" unicode="&#xc5;" horiz-adv-x="712" 
d="M557 0l-67 185h-281l-67 -185h-128l281 688h122l281 -688h-141zM377 502q-8 21 -14 43t-12 45h-2q-6 -23 -12 -45t-14 -43l-90 -248h233zM449 829q0 -18 -7 -33.5t-20 -27t-30 -18t-36 -6.5q-20 0 -36.5 6.5t-29.5 18t-20 27t-7 33.5t7 33.5t20 27t29.5 18t36.5 6.5
q19 0 36 -6.5t30 -18t20 -27t7 -33.5zM402 829q0 19 -13.5 32t-32.5 13t-32.5 -13t-13.5 -32t13.5 -32t32.5 -13t32.5 13t13.5 32z" />
    <glyph glyph-name="AE" unicode="&#xc6;" horiz-adv-x="873" 
d="M527 0l-45 185h-276l-86 -185h-121l341 688h438v-78h-298l64 -218h233v-77h-211l70 -237h213v-78h-322zM399 522q-4 16 -6.5 33.5t-4.5 32.5h-2q-5 -16 -11 -34.5t-13 -32.5l-124 -266h227z" />
    <glyph glyph-name="Ccedilla" unicode="&#xc7;" horiz-adv-x="579" 
d="M543 25q-68 -37 -169 -37q-78 0 -138 28t-100.5 76.5t-61.5 113t-21 138.5t21.5 139t62.5 113t101 76t137 28q101 0 168 -37l-33 -73q-23 12 -53 18t-61 6q-52 0 -90.5 -21t-64 -57.5t-38 -85.5t-12.5 -105q0 -55 13 -103.5t38.5 -84.5t64 -57t89.5 -21q31 0 61 7t53 18z
M435 -124q0 -41 -50.5 -61.5t-140.5 -20.5q-24 0 -44 1.5t-40 3.5l23 42q27 -3 54 -3q50 0 81 9.5t31 28.5q0 30 -76 30h-29q-14 0 -30 -2l21 38q33 3 69 3q71 0 101 -19t30 -50z" />
    <glyph glyph-name="Egrave" unicode="&#xc8;" horiz-adv-x="513" 
d="M73 0v688h396v-78h-265v-218h236v-77h-236v-236h265v-79h-396zM260 747l-139 134q9 12 24 17t34 5q34 0 65 -17l88 -139h-72z" />
    <glyph glyph-name="Eacute" unicode="&#xc9;" horiz-adv-x="513" 
d="M73 0v688h396v-78h-265v-218h236v-77h-236v-236h265v-79h-396zM273 747h-72l89 139q31 17 64 17q19 0 34 -5t24 -17z" />
    <glyph glyph-name="Ecircumflex" unicode="&#xca;" horiz-adv-x="513" 
d="M73 0v688h396v-78h-265v-218h236v-77h-236v-236h265v-79h-396zM375 739l-111 81l-111 -81l-37 34l105 99q19 17 43 17t43 -17l105 -99z" />
    <glyph glyph-name="Edieresis" unicode="&#xcb;" horiz-adv-x="513" 
d="M73 0v688h396v-78h-265v-218h236v-77h-236v-236h265v-79h-396zM419 806q0 -21 -17 -36t-40 -15t-39.5 15t-16.5 36t16.5 36t39.5 15t40 -15t17 -36zM234 806q0 -21 -17 -36t-40 -15t-39.5 15t-16.5 36t16.5 36t39.5 15t40 -15t17 -36z" />
    <glyph glyph-name="Igrave" unicode="&#xcc;" horiz-adv-x="286" 
d="M77 0v688h132v-688h-132zM132 747l-139 134q9 12 24 17t34 5q34 0 65 -17l88 -139h-72z" />
    <glyph glyph-name="Iacute" unicode="&#xcd;" horiz-adv-x="286" 
d="M77 0v688h132v-688h-132zM154 747h-72l89 139q31 17 64 17q19 0 34 -5t24 -17z" />
    <glyph glyph-name="Icircumflex" unicode="&#xce;" horiz-adv-x="286" 
d="M77 0v688h132v-688h-132zM255 739l-111 81l-111 -81l-37 34l105 99q19 17 43 17t43 -17l105 -99z" />
    <glyph glyph-name="Idieresis" unicode="&#xcf;" horiz-adv-x="286" 
d="M77 0v688h132v-688h-132zM292 806q0 -21 -17 -36t-40 -15t-39.5 15t-16.5 36t16.5 36t39.5 15t40 -15t17 -36zM107 806q0 -21 -17 -36t-40 -15t-39.5 15t-16.5 36t16.5 36t39.5 15t40 -15t17 -36z" />
    <glyph glyph-name="Eth" unicode="&#xd0;" horiz-adv-x="716" 
d="M663 349q0 -78 -20.5 -144t-63 -114t-108 -75.5t-156.5 -27.5q-63 0 -120.5 9t-104.5 28v299h-69v70h69v269q48 19 101.5 28t116.5 9q90 0 156.5 -25.5t110.5 -72t66 -111t22 -142.5zM529 351q0 141 -57.5 206.5t-161.5 65.5q-26 0 -47.5 -2.5t-41.5 -8.5v-218h127v-70
h-127v-242q17 -5 41.5 -8.5t48.5 -3.5q218 0 218 281z" />
    <glyph glyph-name="Ntilde" unicode="&#xd1;" horiz-adv-x="736" 
d="M556 0l-332 471q-19 26 -28 42l-15 28h-2q1 -11 2 -33.5t1 -48.5v-459h-109v688h123l315 -443q19 -26 28.5 -43t15.5 -28h2q-1 11 -2.5 30t-1.5 50v434h110v-688h-107zM520 841q-6 -38 -27 -64t-64 -26q-20 0 -33.5 6.5t-26 14.5t-25 14.5t-28.5 6.5q-19 0 -29 -12
t-14 -29l-53 16q6 38 27.5 64t64.5 26q19 0 33 -6.5t26 -14.5t24 -14.5t29 -6.5q19 0 29 12t14 29z" />
    <glyph glyph-name="Ograve" unicode="&#xd2;" horiz-adv-x="732" 
d="M679 344q0 -73 -19 -137.5t-58 -113t-98 -77t-138 -28.5t-138 28.5t-98 77t-58 113t-19 137.5t19 137.5t58 113t98 77t138 28.5t138 -28.5t98 -77t58 -113t19 -137.5zM543 347q0 53 -9.5 102t-30.5 87t-55 61t-82 23t-82 -23t-55 -61t-30.5 -87t-9.5 -102t9.5 -102
t30.5 -87t55 -60.5t82 -22.5t82 22.5t55 60.5t30.5 87t9.5 102zM348 747l-139 134q9 12 24 17t34 5q34 0 65 -17l88 -139h-72z" />
    <glyph glyph-name="Oacute" unicode="&#xd3;" horiz-adv-x="732" 
d="M679 344q0 -73 -19 -137.5t-58 -113t-98 -77t-138 -28.5t-138 28.5t-98 77t-58 113t-19 137.5t19 137.5t58 113t98 77t138 28.5t138 -28.5t98 -77t58 -113t19 -137.5zM543 347q0 53 -9.5 102t-30.5 87t-55 61t-82 23t-82 -23t-55 -61t-30.5 -87t-9.5 -102t9.5 -102
t30.5 -87t55 -60.5t82 -22.5t82 22.5t55 60.5t30.5 87t9.5 102zM382 747h-72l89 139q31 17 64 17q19 0 34 -5t24 -17z" />
    <glyph glyph-name="Ocircumflex" unicode="&#xd4;" horiz-adv-x="732" 
d="M679 344q0 -73 -19 -137.5t-58 -113t-98 -77t-138 -28.5t-138 28.5t-98 77t-58 113t-19 137.5t19 137.5t58 113t98 77t138 28.5t138 -28.5t98 -77t58 -113t19 -137.5zM543 347q0 53 -9.5 102t-30.5 87t-55 61t-82 23t-82 -23t-55 -61t-30.5 -87t-9.5 -102t9.5 -102
t30.5 -87t55 -60.5t82 -22.5t82 22.5t55 60.5t30.5 87t9.5 102zM477 739l-111 81l-111 -81l-37 34l105 99q19 17 43 17t43 -17l105 -99z" />
    <glyph glyph-name="Otilde" unicode="&#xd5;" horiz-adv-x="732" 
d="M679 344q0 -73 -19 -137.5t-58 -113t-98 -77t-138 -28.5t-138 28.5t-98 77t-58 113t-19 137.5t19 137.5t58 113t98 77t138 28.5t138 -28.5t98 -77t58 -113t19 -137.5zM543 347q0 53 -9.5 102t-30.5 87t-55 61t-82 23t-82 -23t-55 -61t-30.5 -87t-9.5 -102t9.5 -102
t30.5 -87t55 -60.5t82 -22.5t82 22.5t55 60.5t30.5 87t9.5 102zM520 841q-6 -38 -27 -64t-64 -26q-20 0 -33.5 6.5t-26 14.5t-25 14.5t-28.5 6.5q-19 0 -29 -12t-14 -29l-53 16q6 38 27.5 64t64.5 26q19 0 33 -6.5t26 -14.5t24 -14.5t29 -6.5q19 0 29 12t14 29z" />
    <glyph glyph-name="Odieresis" unicode="&#xd6;" horiz-adv-x="732" 
d="M679 344q0 -73 -19 -137.5t-58 -113t-98 -77t-138 -28.5t-138 28.5t-98 77t-58 113t-19 137.5t19 137.5t58 113t98 77t138 28.5t138 -28.5t98 -77t58 -113t19 -137.5zM543 347q0 53 -9.5 102t-30.5 87t-55 61t-82 23t-82 -23t-55 -61t-30.5 -87t-9.5 -102t9.5 -102
t30.5 -87t55 -60.5t82 -22.5t82 22.5t55 60.5t30.5 87t9.5 102zM515 806q0 -21 -17 -36t-40 -15t-39.5 15t-16.5 36t16.5 36t39.5 15t40 -15t17 -36zM330 806q0 -21 -17 -36t-40 -15t-39.5 15t-16.5 36t16.5 36t39.5 15t40 -15t17 -36z" />
    <glyph glyph-name="multiply" unicode="&#xd7;" horiz-adv-x="592" 
d="M474 104l-178 171l-176 -170l-56 55l176 170l-176 171l55 56l177 -171l176 171l55 -56l-175 -171l176 -171z" />
    <glyph glyph-name="Oslash" unicode="&#xd8;" horiz-adv-x="732" 
d="M679 344q0 -73 -19 -137.5t-58 -113t-98 -77t-138 -28.5q-63 0 -112.5 18.5t-87.5 50.5l-75 -93l-37 31l78 96q-40 49 -59.5 114t-19.5 139q0 73 19 137.5t58 113t98 77t138 28.5q63 0 113 -18.5t88 -50.5l74 92l36 -31l-77 -96q40 -49 59.5 -113.5t19.5 -138.5zM503 552
q-23 35 -56 55.5t-81 20.5q-51 0 -86.5 -23.5t-57 -62.5t-31.5 -89.5t-10 -105.5q0 -45 6 -86.5t20 -76.5zM551 347q0 43 -6 83t-19 75l-295 -368q22 -33 55 -52.5t80 -19.5q51 0 86.5 23.5t57 62.5t31.5 90t10 106z" />
    <glyph glyph-name="Ugrave" unicode="&#xd9;" horiz-adv-x="673" 
d="M600 218q0 -56 -18.5 -98.5t-53 -72t-83.5 -44.5t-109 -15t-109 15t-83 44.5t-52.5 72t-18.5 98.5v470h131v-471q0 -65 36 -101.5t101 -36.5t101.5 36.5t36.5 101.5v471h121v-470zM334 747l-139 134q9 12 24 17t34 5q34 0 65 -17l88 -139h-72z" />
    <glyph glyph-name="Uacute" unicode="&#xda;" horiz-adv-x="673" 
d="M600 218q0 -56 -18.5 -98.5t-53 -72t-83.5 -44.5t-109 -15t-109 15t-83 44.5t-52.5 72t-18.5 98.5v470h131v-471q0 -65 36 -101.5t101 -36.5t101.5 36.5t36.5 101.5v471h121v-470zM346 747h-72l89 139q31 17 64 17q19 0 34 -5t24 -17z" />
    <glyph glyph-name="Ucircumflex" unicode="&#xdb;" horiz-adv-x="673" 
d="M600 218q0 -56 -18.5 -98.5t-53 -72t-83.5 -44.5t-109 -15t-109 15t-83 44.5t-52.5 72t-18.5 98.5v470h131v-471q0 -65 36 -101.5t101 -36.5t101.5 36.5t36.5 101.5v471h121v-470zM451 739l-111 81l-111 -81l-37 34l105 99q19 17 43 17t43 -17l105 -99z" />
    <glyph glyph-name="Udieresis" unicode="&#xdc;" horiz-adv-x="673" 
d="M600 218q0 -56 -18.5 -98.5t-53 -72t-83.5 -44.5t-109 -15t-109 15t-83 44.5t-52.5 72t-18.5 98.5v470h131v-471q0 -65 36 -101.5t101 -36.5t101.5 36.5t36.5 101.5v471h121v-470zM490 806q0 -21 -17 -36t-40 -15t-39.5 15t-16.5 36t16.5 36t39.5 15t40 -15t17 -36z
M305 806q0 -21 -17 -36t-40 -15t-39.5 15t-16.5 36t16.5 36t39.5 15t40 -15t17 -36z" />
    <glyph glyph-name="Yacute" unicode="&#xdd;" horiz-adv-x="613" 
d="M372 299v-299h-131v299l-229 389h140l159 -293h2l164 293h126zM329 747h-72l89 139q31 17 64 17q19 0 34 -5t24 -17z" />
    <glyph glyph-name="Thorn" unicode="&#xde;" horiz-adv-x="620" 
d="M576 368q0 -47 -17 -86.5t-52 -68t-88.5 -44.5t-126.5 -16q-49 0 -89 6v-159h-130v688h130v-118q44 11 91 11q72 0 125.5 -15t88 -43t51.5 -67t17 -88zM447 369q0 70 -37.5 107t-119.5 37q-23 0 -45 -2.5t-42 -8.5v-272q17 -3 36.5 -5t39.5 -2q90 0 129 39t39 107z" />
    <glyph glyph-name="germandbls" unicode="&#xdf;" horiz-adv-x="656" 
d="M614 153q0 -37 -15.5 -67.5t-43.5 -52t-65.5 -33.5t-81.5 -12q-35 0 -73.5 10.5t-64.5 27.5l25 72q17 -11 42.5 -19t49.5 -8q43 0 72.5 23.5t29.5 60.5q0 26 -13.5 45t-33 34.5t-43 30t-43 32.5t-33 42t-13.5 59q0 28 10 49t27 37t40.5 26t49.5 16q4 14 5 30t1 30
q0 61 -28.5 97.5t-89.5 36.5q-38 0 -63 -16.5t-40 -43.5t-21 -63t-6 -75v-522h-126v515q0 59 15.5 110.5t47.5 89.5t80.5 60t113.5 22q58 0 102.5 -15t75.5 -42.5t47 -66t16 -84.5q0 -21 -3.5 -47.5t-9.5 -46.5q-60 -6 -92.5 -26t-32.5 -65q0 -24 13.5 -41.5t34.5 -33
t44.5 -31t44.5 -35t34.5 -46t13.5 -64.5z" />
    <glyph glyph-name="agrave" unicode="&#xe0;" horiz-adv-x="590" 
d="M523 25q-42 -18 -100.5 -27.5t-122.5 -9.5q-59 0 -106.5 9.5t-81 29.5t-52 51t-18.5 74q0 54 29 90t78.5 58t115 33.5t139.5 17.5v30q0 54 -33.5 75.5t-96.5 21.5q-42 0 -86 -8.5t-80 -22.5l-28 67q47 18 99.5 27.5t108.5 9.5q54 0 97.5 -10t74 -32.5t47 -57.5t16.5 -85
v-341zM404 296q-54 -5 -99 -13t-76.5 -23.5t-49 -40.5t-17.5 -64q0 -52 38.5 -76t103.5 -24q28 0 54 4t46 12v225zM294 598l-139 134q9 12 24 17t34 5q34 0 65 -17l88 -139h-72z" />
    <glyph glyph-name="aacute" unicode="&#xe1;" horiz-adv-x="590" 
d="M523 25q-42 -18 -100.5 -27.5t-122.5 -9.5q-59 0 -106.5 9.5t-81 29.5t-52 51t-18.5 74q0 54 29 90t78.5 58t115 33.5t139.5 17.5v30q0 54 -33.5 75.5t-96.5 21.5q-42 0 -86 -8.5t-80 -22.5l-28 67q47 18 99.5 27.5t108.5 9.5q54 0 97.5 -10t74 -32.5t47 -57.5t16.5 -85
v-341zM404 296q-54 -5 -99 -13t-76.5 -23.5t-49 -40.5t-17.5 -64q0 -52 38.5 -76t103.5 -24q28 0 54 4t46 12v225zM317 598h-72l89 139q31 17 64 17q19 0 34 -5t24 -17z" />
    <glyph glyph-name="acircumflex" unicode="&#xe2;" horiz-adv-x="590" 
d="M523 25q-42 -18 -100.5 -27.5t-122.5 -9.5q-59 0 -106.5 9.5t-81 29.5t-52 51t-18.5 74q0 54 29 90t78.5 58t115 33.5t139.5 17.5v30q0 54 -33.5 75.5t-96.5 21.5q-42 0 -86 -8.5t-80 -22.5l-28 67q47 18 99.5 27.5t108.5 9.5q54 0 97.5 -10t74 -32.5t47 -57.5t16.5 -85
v-341zM404 296q-54 -5 -99 -13t-76.5 -23.5t-49 -40.5t-17.5 -64q0 -52 38.5 -76t103.5 -24q28 0 54 4t46 12v225zM409 590l-111 81l-111 -81l-37 34l105 99q19 17 43 17t43 -17l105 -99z" />
    <glyph glyph-name="atilde" unicode="&#xe3;" horiz-adv-x="590" 
d="M523 25q-42 -18 -100.5 -27.5t-122.5 -9.5q-59 0 -106.5 9.5t-81 29.5t-52 51t-18.5 74q0 54 29 90t78.5 58t115 33.5t139.5 17.5v30q0 54 -33.5 75.5t-96.5 21.5q-42 0 -86 -8.5t-80 -22.5l-28 67q47 18 99.5 27.5t108.5 9.5q54 0 97.5 -10t74 -32.5t47 -57.5t16.5 -85
v-341zM404 296q-54 -5 -99 -13t-76.5 -23.5t-49 -40.5t-17.5 -64q0 -52 38.5 -76t103.5 -24q28 0 54 4t46 12v225zM452 692q-6 -38 -27 -64t-64 -26q-20 0 -33.5 6.5t-26 14.5t-25 14.5t-28.5 6.5q-19 0 -29 -12t-14 -29l-53 16q6 38 27.5 64t64.5 26q19 0 33 -6.5t26 -14.5
t24 -14.5t29 -6.5q19 0 29 12t14 29z" />
    <glyph glyph-name="adieresis" unicode="&#xe4;" horiz-adv-x="590" 
d="M523 25q-42 -18 -100.5 -27.5t-122.5 -9.5q-59 0 -106.5 9.5t-81 29.5t-52 51t-18.5 74q0 54 29 90t78.5 58t115 33.5t139.5 17.5v30q0 54 -33.5 75.5t-96.5 21.5q-42 0 -86 -8.5t-80 -22.5l-28 67q47 18 99.5 27.5t108.5 9.5q54 0 97.5 -10t74 -32.5t47 -57.5t16.5 -85
v-341zM404 296q-54 -5 -99 -13t-76.5 -23.5t-49 -40.5t-17.5 -64q0 -52 38.5 -76t103.5 -24q28 0 54 4t46 12v225zM453 657q0 -21 -17 -36t-40 -15t-39.5 15t-16.5 36t16.5 36t39.5 15t40 -15t17 -36zM268 657q0 -21 -17 -36t-40 -15t-39.5 15t-16.5 36t16.5 36t39.5 15
t40 -15t17 -36z" />
    <glyph glyph-name="aring" unicode="&#xe5;" horiz-adv-x="590" 
d="M523 25q-42 -18 -100.5 -27.5t-122.5 -9.5q-59 0 -106.5 9.5t-81 29.5t-52 51t-18.5 74q0 54 29 90t78.5 58t115 33.5t139.5 17.5v30q0 54 -33.5 75.5t-96.5 21.5q-42 0 -86 -8.5t-80 -22.5l-28 67q47 18 99.5 27.5t108.5 9.5q54 0 97.5 -10t74 -32.5t47 -57.5t16.5 -85
v-341zM404 296q-54 -5 -99 -13t-76.5 -23.5t-49 -40.5t-17.5 -64q0 -52 38.5 -76t103.5 -24q28 0 54 4t46 12v225zM395 680q0 -18 -7 -33.5t-20 -27t-30 -18t-36 -6.5q-20 0 -36.5 6.5t-29.5 18t-20 27t-7 33.5t7 33.5t20 27t29.5 18t36.5 6.5q19 0 36 -6.5t30 -18t20 -27
t7 -33.5zM348 680q0 19 -13.5 32t-32.5 13t-32.5 -13t-13.5 -32t13.5 -32t32.5 -13t32.5 13t13.5 32z" />
    <glyph glyph-name="ae" unicode="&#xe6;" horiz-adv-x="949" 
d="M506 227q3 -41 18.5 -70.5t40.5 -49.5t57 -29.5t68 -9.5q45 0 87.5 9t73.5 22l29 -73q-42 -18 -95.5 -28t-108.5 -10q-67 0 -120.5 25.5t-88.5 70.5q-24 -45 -69.5 -70.5t-125.5 -25.5q-105 0 -167.5 42t-62.5 122q0 52 28.5 87.5t77.5 58t114 35t138 18.5v24
q0 54 -35 78.5t-95 24.5q-41 0 -83.5 -8.5t-78.5 -22.5l-28 67q47 18 100.5 27.5t106.5 9.5q59 0 106.5 -20t72.5 -69q31 46 83 67.5t104 21.5q120 0 184.5 -68.5t64.5 -203.5zM779 324q0 74 -33.5 116t-102.5 42q-68 0 -106.5 -49t-38.5 -139v-6zM400 296q-57 -6 -102 -15
t-76.5 -25t-48 -40.5t-16.5 -60.5q0 -48 33 -74t88 -26q57 0 89.5 30.5t32.5 76.5v134z" />
    <glyph glyph-name="ccedilla" unicode="&#xe7;" horiz-adv-x="488" 
d="M456 25q-62 -37 -153 -37q-62 0 -110 21.5t-80.5 59t-49.5 89.5t-17 112t17 111.5t49.5 89t80.5 59t110 21.5q90 0 152 -37l-29 -66q-20 14 -45 20t-54 6q-38 0 -66.5 -16t-47 -43t-28 -64t-9.5 -79t9.5 -79t28 -64.5t47 -43.5t66.5 -16q59 0 98 26zM373 -124
q0 -41 -50.5 -61.5t-140.5 -20.5q-24 0 -44 1.5t-40 3.5l23 42q27 -3 54 -3q50 0 81 9.5t31 28.5q0 30 -76 30h-29q-14 0 -30 -2l21 38q33 3 69 3q71 0 101 -19t30 -50z" />
    <glyph glyph-name="egrave" unicode="&#xe8;" horiz-adv-x="619" 
d="M171 227q8 -80 59 -119.5t128 -39.5q44 0 87.5 8.5t76.5 22.5l29 -73q-44 -19 -97 -28.5t-111 -9.5q-67 0 -122 18t-94 53.5t-60 88.5t-21 124q0 67 19.5 119.5t55.5 87.5t86 53.5t111 18.5q124 0 189.5 -68.5t65.5 -203.5zM450 324q0 81 -36.5 119.5t-101.5 38.5
q-33 0 -60.5 -12t-47.5 -36t-31 -59.5t-11 -81.5v-6zM302 598l-139 134q9 12 24 17t34 5q34 0 65 -17l88 -139h-72z" />
    <glyph glyph-name="eacute" unicode="&#xe9;" horiz-adv-x="619" 
d="M171 227q8 -80 59 -119.5t128 -39.5q44 0 87.5 8.5t76.5 22.5l29 -73q-44 -19 -97 -28.5t-111 -9.5q-67 0 -122 18t-94 53.5t-60 88.5t-21 124q0 67 19.5 119.5t55.5 87.5t86 53.5t111 18.5q124 0 189.5 -68.5t65.5 -203.5zM450 324q0 81 -36.5 119.5t-101.5 38.5
q-33 0 -60.5 -12t-47.5 -36t-31 -59.5t-11 -81.5v-6zM325 598h-72l89 139q31 17 64 17q19 0 34 -5t24 -17z" />
    <glyph glyph-name="ecircumflex" unicode="&#xea;" horiz-adv-x="619" 
d="M171 227q8 -80 59 -119.5t128 -39.5q44 0 87.5 8.5t76.5 22.5l29 -73q-44 -19 -97 -28.5t-111 -9.5q-67 0 -122 18t-94 53.5t-60 88.5t-21 124q0 67 19.5 119.5t55.5 87.5t86 53.5t111 18.5q124 0 189.5 -68.5t65.5 -203.5zM450 324q0 81 -36.5 119.5t-101.5 38.5
q-33 0 -60.5 -12t-47.5 -36t-31 -59.5t-11 -81.5v-6zM425 590l-111 81l-111 -81l-37 34l105 99q19 17 43 17t43 -17l105 -99z" />
    <glyph glyph-name="edieresis" unicode="&#xeb;" horiz-adv-x="619" 
d="M171 227q8 -80 59 -119.5t128 -39.5q44 0 87.5 8.5t76.5 22.5l29 -73q-44 -19 -97 -28.5t-111 -9.5q-67 0 -122 18t-94 53.5t-60 88.5t-21 124q0 67 19.5 119.5t55.5 87.5t86 53.5t111 18.5q124 0 189.5 -68.5t65.5 -203.5zM450 324q0 81 -36.5 119.5t-101.5 38.5
q-33 0 -60.5 -12t-47.5 -36t-31 -59.5t-11 -81.5v-6zM462 657q0 -21 -17 -36t-40 -15t-39.5 15t-16.5 36t16.5 36t39.5 15t40 -15t17 -36zM277 657q0 -21 -17 -36t-40 -15t-39.5 15t-16.5 36t16.5 36t39.5 15t40 -15t17 -36z" />
    <glyph glyph-name="igrave" unicode="&#xec;" horiz-adv-x="270" 
d="M72 0v539h126v-539h-126zM135 598l-139 134q9 12 24 17t34 5q34 0 65 -17l88 -139h-72z" />
    <glyph glyph-name="iacute" unicode="&#xed;" horiz-adv-x="270" 
d="M72 0v539h126v-539h-126zM135 598h-72l89 139q31 17 64 17q19 0 34 -5t24 -17z" />
    <glyph glyph-name="icircumflex" unicode="&#xee;" horiz-adv-x="270" 
d="M72 0v539h126v-539h-126zM246 590l-111 81l-111 -81l-37 34l105 99q19 17 43 17t43 -17l105 -99z" />
    <glyph glyph-name="idieresis" unicode="&#xef;" horiz-adv-x="270" 
d="M72 0v539h126v-539h-126zM285 657q0 -21 -17 -36t-40 -15t-39.5 15t-16.5 36t16.5 36t39.5 15t40 -15t17 -36zM100 657q0 -21 -17 -36t-40 -15t-39.5 15t-16.5 36t16.5 36t39.5 15t40 -15t17 -36z" />
    <glyph glyph-name="eth" unicode="&#xf0;" horiz-adv-x="627" 
d="M581 273q0 -60 -16 -112.5t-49 -90.5t-83.5 -60t-119.5 -22q-130 0 -198.5 73t-68.5 200q0 60 19.5 109.5t55 85t86 55.5t113.5 20q33 0 60 -6q-18 28 -40 54t-48 51l-104 -60l-37 49l92 56l-77 71l84 52l80 -71l98 59l44 -52l-92 -53q46 -43 83.5 -88.5t63.5 -95.5
t40 -105.5t14 -118.5zM454 271q0 53 -9.5 98.5t-27.5 87.5q-20 6 -42.5 9.5t-45.5 3.5q-39 0 -68.5 -16t-48.5 -44t-28.5 -66t-9.5 -82q0 -43 8.5 -79t25.5 -62t43.5 -40.5t62.5 -14.5q37 0 63.5 15t43.5 42.5t25 65t8 82.5z" />
    <glyph glyph-name="ntilde" unicode="&#xf1;" 
d="M429 0v354q0 65 -34.5 94.5t-100.5 29.5q-26 0 -53 -4t-49 -12v-462h-125v513q50 20 109 29t120 9t109 -11t81.5 -35t51 -61.5t17.5 -89.5v-354h-126zM460 692q-6 -38 -27 -64t-64 -26q-20 0 -33.5 6.5t-26 14.5t-25 14.5t-28.5 6.5q-19 0 -29 -12t-14 -29l-53 16
q6 38 27.5 64t64.5 26q19 0 33 -6.5t26 -14.5t24 -14.5t29 -6.5q19 0 29 12t14 29z" />
    <glyph glyph-name="ograve" unicode="&#xf2;" horiz-adv-x="628" 
d="M582 270q0 -60 -17.5 -112t-51.5 -89.5t-84 -59t-115 -21.5t-115 21.5t-84 59t-51.5 89.5t-17.5 112t17.5 111.5t51.5 89t84 59t115 21.5t115 -21.5t84 -59t51.5 -89t17.5 -111.5zM454 272q0 43 -8 81t-24.5 66t-43.5 44t-64 16q-38 0 -64.5 -16t-43 -44t-24.5 -66
t-8 -81t8 -81t24.5 -66t43 -44t64.5 -16q37 0 64 16t43.5 44t24.5 66t8 81zM297 598l-139 134q9 12 24 17t34 5q34 0 65 -17l88 -139h-72z" />
    <glyph glyph-name="oacute" unicode="&#xf3;" horiz-adv-x="628" 
d="M582 270q0 -60 -17.5 -112t-51.5 -89.5t-84 -59t-115 -21.5t-115 21.5t-84 59t-51.5 89.5t-17.5 112t17.5 111.5t51.5 89t84 59t115 21.5t115 -21.5t84 -59t51.5 -89t17.5 -111.5zM454 272q0 43 -8 81t-24.5 66t-43.5 44t-64 16q-38 0 -64.5 -16t-43 -44t-24.5 -66
t-8 -81t8 -81t24.5 -66t43 -44t64.5 -16q37 0 64 16t43.5 44t24.5 66t8 81zM329 598h-72l89 139q31 17 64 17q19 0 34 -5t24 -17z" />
    <glyph glyph-name="ocircumflex" unicode="&#xf4;" horiz-adv-x="628" 
d="M582 270q0 -60 -17.5 -112t-51.5 -89.5t-84 -59t-115 -21.5t-115 21.5t-84 59t-51.5 89.5t-17.5 112t17.5 111.5t51.5 89t84 59t115 21.5t115 -21.5t84 -59t51.5 -89t17.5 -111.5zM454 272q0 43 -8 81t-24.5 66t-43.5 44t-64 16q-38 0 -64.5 -16t-43 -44t-24.5 -66
t-8 -81t8 -81t24.5 -66t43 -44t64.5 -16q37 0 64 16t43.5 44t24.5 66t8 81zM425 592l-111 81l-111 -81l-37 34l105 99q19 17 43 17t43 -17l105 -99z" />
    <glyph glyph-name="otilde" unicode="&#xf5;" horiz-adv-x="628" 
d="M582 270q0 -60 -17.5 -112t-51.5 -89.5t-84 -59t-115 -21.5t-115 21.5t-84 59t-51.5 89.5t-17.5 112t17.5 111.5t51.5 89t84 59t115 21.5t115 -21.5t84 -59t51.5 -89t17.5 -111.5zM454 272q0 43 -8 81t-24.5 66t-43.5 44t-64 16q-38 0 -64.5 -16t-43 -44t-24.5 -66
t-8 -81t8 -81t24.5 -66t43 -44t64.5 -16q37 0 64 16t43.5 44t24.5 66t8 81zM466 692q-6 -38 -27 -64t-64 -26q-20 0 -33.5 6.5t-26 14.5t-25 14.5t-28.5 6.5q-19 0 -29 -12t-14 -29l-53 16q6 38 27.5 64t64.5 26q19 0 33 -6.5t26 -14.5t24 -14.5t29 -6.5q19 0 29 12t14 29z
" />
    <glyph glyph-name="odieresis" unicode="&#xf6;" horiz-adv-x="628" 
d="M582 270q0 -60 -17.5 -112t-51.5 -89.5t-84 -59t-115 -21.5t-115 21.5t-84 59t-51.5 89.5t-17.5 112t17.5 111.5t51.5 89t84 59t115 21.5t115 -21.5t84 -59t51.5 -89t17.5 -111.5zM454 272q0 43 -8 81t-24.5 66t-43.5 44t-64 16q-38 0 -64.5 -16t-43 -44t-24.5 -66
t-8 -81t8 -81t24.5 -66t43 -44t64.5 -16q37 0 64 16t43.5 44t24.5 66t8 81zM463 657q0 -21 -17 -36t-40 -15t-39.5 15t-16.5 36t16.5 36t39.5 15t40 -15t17 -36zM278 657q0 -21 -17 -36t-40 -15t-39.5 15t-16.5 36t16.5 36t39.5 15t40 -15t17 -36z" />
    <glyph glyph-name="divide" unicode="&#xf7;" horiz-adv-x="592" 
d="M359 500q0 -24 -18.5 -41t-44.5 -17t-44.5 17t-18.5 41t18.5 41t44.5 17t44.5 -17t18.5 -41zM63 295v72h466v-72h-466zM359 162q0 -24 -18.5 -41t-44.5 -17t-44.5 17t-18.5 41t18.5 41t44.5 17t44.5 -17t18.5 -41z" />
    <glyph glyph-name="oslash" unicode="&#xf8;" horiz-adv-x="628" 
d="M582 270q0 -60 -17.5 -112t-51.5 -89.5t-84 -59t-115 -21.5q-48 0 -87 11.5t-71 33.5l-64 -81l-32 27l63 81q-38 38 -57.5 92t-19.5 118q0 60 17.5 111.5t51.5 89t84 59t115 21.5q48 0 87 -11.5t71 -33.5l63 81l32 -27l-63 -81q38 -38 58 -91.5t20 -117.5zM418 437
q-18 23 -43.5 35.5t-60.5 12.5q-39 0 -67.5 -17t-46.5 -46t-26.5 -67.5t-8.5 -82.5q0 -36 5.5 -69t17.5 -60zM462 272q0 35 -5.5 67t-16.5 58l-228 -292q18 -22 43 -34.5t59 -12.5q39 0 67 17t46 46t26.5 68t8.5 83z" />
    <glyph glyph-name="ugrave" unicode="&#xf9;" horiz-adv-x="611" 
d="M544 26q-96 -38 -226 -38q-59 0 -105.5 10.5t-78.5 34t-49.5 61.5t-17.5 92v353h125v-355q0 -61 33 -89t94 -28q59 0 100 17v455h125v-513zM296 598l-139 134q9 12 24 17t34 5q34 0 65 -17l88 -139h-72z" />
    <glyph glyph-name="uacute" unicode="&#xfa;" horiz-adv-x="611" 
d="M544 26q-96 -38 -226 -38q-59 0 -105.5 10.5t-78.5 34t-49.5 61.5t-17.5 92v353h125v-355q0 -61 33 -89t94 -28q59 0 100 17v455h125v-513zM316 598h-72l89 139q31 17 64 17q19 0 34 -5t24 -17z" />
    <glyph glyph-name="ucircumflex" unicode="&#xfb;" horiz-adv-x="611" 
d="M544 26q-96 -38 -226 -38q-59 0 -105.5 10.5t-78.5 34t-49.5 61.5t-17.5 92v353h125v-355q0 -61 33 -89t94 -28q59 0 100 17v455h125v-513zM417 592l-111 81l-111 -81l-37 34l105 99q19 17 43 17t43 -17l105 -99z" />
    <glyph glyph-name="udieresis" unicode="&#xfc;" horiz-adv-x="611" 
d="M544 26q-96 -38 -226 -38q-59 0 -105.5 10.5t-78.5 34t-49.5 61.5t-17.5 92v353h125v-355q0 -61 33 -89t94 -28q59 0 100 17v455h125v-513zM454 657q0 -21 -17 -36t-40 -15t-39.5 15t-16.5 36t16.5 36t39.5 15t40 -15t17 -36zM269 657q0 -21 -17 -36t-40 -15t-39.5 15
t-16.5 36t16.5 36t39.5 15t40 -15t17 -36z" />
    <glyph glyph-name="yacute" unicode="&#xfd;" horiz-adv-x="582" 
d="M268 -215h-136l104 215l-213 539h136l118 -362q8 -26 12.5 -46t6.5 -34h2q2 11 7 33.5t13 46.5l125 362h118zM308 598h-72l89 139q31 17 64 17q19 0 34 -5t24 -17z" />
    <glyph glyph-name="thorn" unicode="&#xfe;" horiz-adv-x="621" 
d="M574 281q0 -65 -19.5 -118.5t-55.5 -92t-87.5 -60t-116.5 -21.5q-26 0 -53.5 3.5t-49.5 9.5v-217h-125v1000h125v-258q26 11 59 17t73 6q56 0 102 -19t79 -54.5t51 -85t18 -110.5zM447 275q0 94 -39.5 151t-118.5 57q-56 0 -97 -17v-393q17 -7 39 -10.5t45 -3.5
q43 0 75.5 15.5t53.5 44t31.5 68.5t10.5 88z" />
    <glyph glyph-name="ydieresis" unicode="&#xff;" horiz-adv-x="582" 
d="M268 -215h-136l104 215l-213 539h136l118 -362q8 -26 12.5 -46t6.5 -34h2q2 11 7 33.5t13 46.5l125 362h118zM447 657q0 -21 -17 -36t-40 -15t-39.5 15t-16.5 36t16.5 36t39.5 15t40 -15t17 -36zM262 657q0 -21 -17 -36t-40 -15t-39.5 15t-16.5 36t16.5 36t39.5 15
t40 -15t17 -36z" />
    <glyph glyph-name="dotlessi" unicode="&#x131;" horiz-adv-x="270" 
d="M72 0v539h126v-539h-126z" />
    <glyph glyph-name="IJ" unicode="&#x132;" horiz-adv-x="572" 
d="M77 0v688h132v-688h-132zM495 100q0 -71 -22 -127.5t-60 -97.5t-88.5 -66t-107.5 -32v82q31 10 57.5 29.5t46 49t31 68t11.5 86.5v596h132v-588z" />
    <glyph glyph-name="ij" unicode="&#x133;" horiz-adv-x="544" 
d="M72 0v539h126v-539h-126zM208 692q0 -25 -21.5 -42.5t-51.5 -17.5t-51.5 17.5t-21.5 42.5t21.5 42.5t51.5 17.5t51.5 -17.5t21.5 -42.5zM482 691q0 -25 -21.5 -42.5t-51.5 -17.5t-51.5 17.5t-21.5 42.5t21.5 42.5t51.5 17.5t51.5 -17.5t21.5 -42.5zM472 74
q0 -63 -18.5 -113.5t-51.5 -88t-78 -61t-98 -32.5v79q58 22 89 76.5t31 130.5v474h126v-465z" />
    <glyph glyph-name="Lslash" unicode="&#x141;" horiz-adv-x="503" 
d="M99 0v331l-66 -30v74l66 31v282h132v-237l88 41v-75l-88 -40v-299h240v-78h-372z" />
    <glyph glyph-name="lslash" unicode="&#x142;" horiz-adv-x="320" 
d="M221 439v-439h-125v392l-79 -38v72l79 38v321h125v-275l82 39v-72z" />
    <glyph glyph-name="OE" unicode="&#x152;" horiz-adv-x="892" 
d="M484 0q-18 -5 -46 -8.5t-54 -3.5q-84 0 -146.5 26.5t-103.5 74t-61 113t-20 142.5q0 78 20 143t60.5 112.5t102.5 74t147 26.5q25 0 51.5 -3t49.5 -9h363v-78h-257v-218h230v-77h-230v-236h257v-79h-363zM468 618q-36 9 -79 9q-61 0 -100 -26.5t-61.5 -67.5t-31.5 -90.5
t-9 -96.5t9 -96.5t31.5 -90t62 -66.5t99.5 -26q20 0 41.5 2t37.5 6v543z" />
    <glyph glyph-name="oe" unicode="&#x153;" horiz-adv-x="986" 
d="M544 227q6 -45 22 -75.5t40 -49t54.5 -26.5t65.5 -8q42 0 85.5 8.5t76.5 23.5l29 -74q-43 -19 -95 -28.5t-106 -9.5q-37 0 -71.5 7.5t-63.5 22t-51.5 36t-34.5 48.5q-29 -56 -78 -85t-115 -29q-63 0 -111 22t-80 60t-48.5 89t-16.5 110t16.5 110.5t49 89.5t80 60
t110.5 22q66 0 113 -27t78 -78q28 49 80 77.5t115 28.5q120 0 185.5 -67.5t65.5 -205.5zM817 324q0 81 -37 119.5t-101 38.5q-66 0 -105 -48.5t-39 -139.5v-6zM436 271q0 43 -6 81t-21 66.5t-40.5 44.5t-64.5 16q-36 0 -62 -16.5t-42.5 -45t-24.5 -66t-8 -80.5t8 -80.5
t24.5 -65.5t42.5 -44t62 -16q43 0 69 19.5t40 49.5t18.5 66.5t4.5 70.5z" />
    <glyph glyph-name="Scaron" unicode="&#x160;" horiz-adv-x="558" 
d="M509 193q0 -46 -19 -84t-54 -65t-84 -41.5t-109 -14.5q-57 0 -109 9t-97 28l33 80q36 -15 76 -22.5t78 -7.5q69 0 107.5 28.5t38.5 80.5q0 38 -23.5 62t-58.5 41.5t-76 33.5t-76 39t-58.5 57.5t-23.5 88.5q0 43 17.5 78.5t50 61t78.5 40t103 14.5q107 0 184 -37l-32 -75
q-57 29 -137 29q-63 0 -98 -28t-35 -74q0 -38 24 -60.5t60 -39t78 -32t78 -38.5t60 -59t24 -93zM327 763q-19 -17 -43 -17t-43 17l-105 99l37 34l111 -81l111 81l37 -34z" />
    <glyph glyph-name="scaron" unicode="&#x161;" horiz-adv-x="487" 
d="M443 153q0 -37 -16 -67.5t-45.5 -52t-71.5 -33.5t-94 -12q-48 0 -93.5 9t-86.5 28l33 72q28 -14 63.5 -22.5t69.5 -8.5q54 0 82.5 22.5t28.5 60.5q0 30 -19.5 48t-48.5 31t-63.5 25t-63.5 29.5t-48.5 44t-19.5 68.5q0 35 15 63.5t42 49t64.5 32t82.5 11.5q48 0 91.5 -9
t81.5 -28l-33 -66q-25 13 -55.5 20.5t-61.5 7.5q-47 0 -74.5 -20.5t-27.5 -57.5q0 -28 20 -45.5t49.5 -30.5t64.5 -25.5t64.5 -30t49.5 -44.5t20 -69zM290 614q-19 -17 -43 -17t-43 17l-105 99l37 34l111 -81l111 81l37 -34z" />
    <glyph glyph-name="Ydieresis" unicode="&#x178;" horiz-adv-x="613" 
d="M372 299v-299h-131v299l-229 389h140l159 -293h2l164 293h126zM463 806q0 -21 -17 -36t-40 -15t-39.5 15t-16.5 36t16.5 36t39.5 15t40 -15t17 -36zM278 806q0 -21 -17 -36t-40 -15t-39.5 15t-16.5 36t16.5 36t39.5 15t40 -15t17 -36z" />
    <glyph glyph-name="Zcaron" unicode="&#x17d;" horiz-adv-x="525" 
d="M22 0l290 610h-270v78h442l-285 -609h292v-79h-469zM305 763q-19 -17 -43 -17t-43 17l-105 99l37 34l111 -81l111 81l37 -34z" />
    <glyph glyph-name="zcaron" unicode="&#x17e;" horiz-adv-x="493" 
d="M29 0l255 468h-235v71h398l-248 -468h256v-71h-426zM291 614q-19 -17 -43 -17t-43 17l-105 99l37 34l111 -81l111 81l37 -34z" />
    <glyph glyph-name="longs" unicode="&#x17f;" horiz-adv-x="345" 
d="M345 708q-23 6 -47 6q-51 0 -76.5 -28.5t-25.5 -81.5v-819h-124v814q0 91 53.5 141t149.5 50q23 0 46 -3t40 -8z" />
    <glyph glyph-name="florin" unicode="&#x192;" 
d="M551 609q-11 5 -26.5 8t-29.5 3q-50 0 -78 -36t-38 -103l-10 -74h130v-75h-141l-48 -333q-15 -104 -72 -162t-156 -58q-25 0 -51 4.5t-46 13.5l26 76q11 -5 27 -8t30 -3q51 0 78.5 36t37.5 102l48 332h-116v75h127l10 74q15 105 71.5 161t153.5 56q24 0 51 -5t47 -13z
" />
    <glyph glyph-name="afii57929" unicode="&#x2bc;" horiz-adv-x="1" 
d="M-115 610h-66v164q9 9 23.5 13.5t28.5 4.5t26.5 -4.5t20.5 -13.5z" />
    <glyph glyph-name="circumflex" unicode="&#x2c6;" horiz-adv-x="270" 
d="M246 590l-111 81l-111 -81l-37 34l105 99q19 17 43 17t43 -17l105 -99z" />
    <glyph glyph-name="caron" unicode="&#x2c7;" horiz-adv-x="270" 
d="M178 614q-19 -17 -43 -17t-43 17l-105 99l37 34l111 -81l111 81l37 -34z" />
    <glyph glyph-name="uni02C9" unicode="&#x2c9;" horiz-adv-x="270" 
d="M-8 614v65h286v-65h-286z" />
    <glyph glyph-name="breve" unicode="&#x2d8;" horiz-adv-x="270" 
d="M279 732q0 -30 -10.5 -55t-30 -42.5t-46 -27.5t-57.5 -10q-32 0 -58 10t-45.5 27.5t-30 42.5t-10.5 55l53 8q5 -40 30.5 -59t60.5 -19t60.5 19t30.5 59z" />
    <glyph glyph-name="dotaccent" unicode="&#x2d9;" horiz-adv-x="270" 
d="M196 663q0 -23 -17.5 -40t-43.5 -17t-43.5 17t-17.5 40t17.5 40t43.5 17t43.5 -17t17.5 -40z" />
    <glyph glyph-name="ring" unicode="&#x2da;" horiz-adv-x="270" 
d="M228 680q0 -18 -7 -33.5t-20 -27t-30 -18t-36 -6.5q-20 0 -36.5 6.5t-29.5 18t-20 27t-7 33.5t7 33.5t20 27t29.5 18t36.5 6.5q19 0 36 -6.5t30 -18t20 -27t7 -33.5zM181 680q0 19 -13.5 32t-32.5 13t-32.5 -13t-13.5 -32t13.5 -32t32.5 -13t32.5 13t13.5 32z" />
    <glyph glyph-name="ogonek" unicode="&#x2db;" horiz-adv-x="270" 
d="M261 -169q-18 -8 -43.5 -12t-51.5 -4q-60 0 -98 21.5t-38 64.5q0 33 28 61.5t69 48.5h77q-84 -45 -84 -95q0 -22 18.5 -35t48.5 -13q15 0 32 3t30 8z" />
    <glyph glyph-name="tilde" unicode="&#x2dc;" horiz-adv-x="270" 
d="M285 692q-6 -38 -27 -64t-64 -26q-20 0 -33.5 6.5t-26 14.5t-25 14.5t-28.5 6.5q-19 0 -29 -12t-14 -29l-53 16q6 38 27.5 64t64.5 26q19 0 33 -6.5t26 -14.5t24 -14.5t29 -6.5q19 0 29 12t14 29z" />
    <glyph glyph-name="hungarumlaut" unicode="&#x2dd;" horiz-adv-x="270" 
d="M214 598h-58l89 137q26 20 54 20q15 0 24 -6.5t11 -17.5zM69 598h-58l89 137q26 20 55 20q15 0 23.5 -6.5t10.5 -17.5z" />
    <glyph glyph-name="gravecomb" unicode="&#x300;" horiz-adv-x="1" 
d="M-325 598l-139 134q9 12 24 17t34 5q34 0 65 -17l88 -139h-72z" />
    <glyph glyph-name="acutecomb" unicode="&#x301;" horiz-adv-x="1" 
d="M-303 598h-72l89 139q31 17 64 17q19 0 34 -5t24 -17z" />
    <glyph glyph-name="uni0302" unicode="&#x302;" horiz-adv-x="1" 
d="M-200 590l-111 81l-111 -81l-37 34l105 99q19 17 43 17t43 -17l105 -99z" />
    <glyph glyph-name="tildecomb" unicode="&#x303;" horiz-adv-x="1" 
d="M-166 692q-6 -38 -27 -64t-64 -26q-20 0 -33.5 6.5t-26 14.5t-25 14.5t-28.5 6.5q-19 0 -29 -12t-14 -29l-53 16q6 38 27.5 64t64.5 26q19 0 33 -6.5t26 -14.5t24 -14.5t29 -6.5q19 0 29 12t14 29z" />
    <glyph glyph-name="uni0304" unicode="&#x304;" horiz-adv-x="1" 
d="M-286 614v65h286v-65h-286z" />
    <glyph glyph-name="uni0306" unicode="&#x306;" horiz-adv-x="1" 
d="M-1 732q0 -30 -10.5 -55t-30 -42.5t-46 -27.5t-57.5 -10q-32 0 -58 10t-45.5 27.5t-30 42.5t-10.5 55l53 8q5 -40 30.5 -59t60.5 -19t60.5 19t30.5 59z" />
    <glyph glyph-name="uni0307" unicode="&#x307;" horiz-adv-x="1" 
d="M-72 663q0 -23 -17.5 -40t-43.5 -17t-43.5 17t-17.5 40t17.5 40t43.5 17t43.5 -17t17.5 -40z" />
    <glyph glyph-name="uni0308" unicode="&#x308;" horiz-adv-x="1" 
d="M5 657q0 -21 -17 -36t-40 -15t-39.5 15t-16.5 36t16.5 36t39.5 15t40 -15t17 -36zM-180 657q0 -21 -17 -36t-40 -15t-39.5 15t-16.5 36t16.5 36t39.5 15t40 -15t17 -36z" />
    <glyph glyph-name="uni030A" unicode="&#x30a;" horiz-adv-x="1" 
d="M-52 680q0 -18 -7 -33.5t-20 -27t-30 -18t-36 -6.5q-20 0 -36.5 6.5t-29.5 18t-20 27t-7 33.5t7 33.5t20 27t29.5 18t36.5 6.5q19 0 36 -6.5t30 -18t20 -27t7 -33.5zM-99 680q0 19 -13.5 32t-32.5 13t-32.5 -13t-13.5 -32t13.5 -32t32.5 -13t32.5 13t13.5 32z" />
    <glyph glyph-name="uni030B" unicode="&#x30b;" horiz-adv-x="1" 
d="M-92 598h-58l89 137q26 20 54 20q15 0 24 -6.5t11 -17.5zM-237 598h-58l89 137q26 20 55 20q15 0 23.5 -6.5t10.5 -17.5z" />
    <glyph glyph-name="uni030C" unicode="&#x30c;" horiz-adv-x="1" 
d="M-202 614q-19 -17 -43 -17t-43 17l-105 99l37 34l111 -81l111 81l37 -34z" />
    <glyph glyph-name="uni0312" unicode="&#x312;" horiz-adv-x="1" 
d="M-170 614q-11 -8 -28.5 -12.5t-35.5 -4.5t-33.5 5.5t-23.5 17.5l123 138h70z" />
    <glyph glyph-name="uni0313" unicode="&#x313;" horiz-adv-x="1" 
d="M-115 610h-66v164q9 9 23.5 13.5t28.5 4.5t26.5 -4.5t20.5 -13.5z" />
    <glyph glyph-name="uni0326" unicode="&#x326;" horiz-adv-x="1" 
d="M-181 -215h-70l71 143q14 8 30.5 12.5t33.5 4.5q18 0 33.5 -5t23.5 -17z" />
    <glyph glyph-name="uni0327" unicode="&#x327;" horiz-adv-x="1" 
d="M-1 -124q0 -41 -50.5 -61.5t-140.5 -20.5q-24 0 -44 1.5t-40 3.5l23 42q27 -3 54 -3q50 0 81 9.5t31 28.5q0 30 -76 30h-29q-14 0 -30 -2l21 38q33 3 69 3q71 0 101 -19t30 -50z" />
    <glyph glyph-name="uni0328" unicode="&#x328;" horiz-adv-x="1" 
d="M32 -169q-18 -8 -43.5 -12t-51.5 -4q-60 0 -98 21.5t-38 64.5q0 33 28 61.5t69 48.5h77q-84 -45 -84 -95q0 -22 18.5 -35t48.5 -13q15 0 32 3t30 8z" />
    <glyph glyph-name="uni0335" unicode="&#x335;" horiz-adv-x="1" 
d="M-307 240v58h326v-58h-326z" />
    <glyph glyph-name="uni0336" unicode="&#x336;" horiz-adv-x="1" 
d="M-822 241v55h691v-55h-691z" />
    <glyph glyph-name="uni037E" unicode="&#x37e;" horiz-adv-x="300" 
d="M232 373q0 -29 -22.5 -49.5t-54.5 -20.5t-54.5 20.5t-22.5 49.5t22.5 49.5t54.5 20.5t54.5 -20.5t22.5 -49.5zM83 -145h-76l93 242q12 18 32 26.5t40 8.5t37 -8.5t24 -26.5z" />
    <glyph glyph-name="uni0394" unicode="&#x394;" horiz-adv-x="712" 
d="M14 0l281 688h122l281 -688h-684zM377 502q-9 23 -15 45.5t-11 42.5h-2q-5 -21 -11 -42.5t-15 -45.5l-159 -431h371z" />
    <glyph glyph-name="uni03A9" unicode="&#x3a9;" horiz-adv-x="742" 
d="M427 0v72q59 66 91.5 144t32.5 163q0 53 -11.5 97.5t-34 76.5t-56 50t-78.5 18t-79 -18t-56.5 -50t-33.5 -76.5t-11 -97.5q0 -85 32.5 -163t91.5 -144v-72h-272v78h153q-62 69 -101.5 145t-39.5 170q0 65 21 121t61.5 97.5t99.5 65t134 23.5t133.5 -23.5t99 -65t62 -97.5
t21.5 -121q0 -94 -39.5 -170t-101.5 -145h153v-78h-272z" />
    <glyph glyph-name="uni03BC" unicode="&#x3bc;" horiz-adv-x="611" 
d="M544 26q-42 -19 -94.5 -28.5t-109.5 -9.5q-40 0 -78.5 8t-69.5 25v-236h-125v754h125v-447q25 -16 57 -23.5t64 -7.5q29 0 56.5 4t49.5 14v460h125v-513z" />
    <glyph glyph-name="pi" unicode="&#x3c0;" horiz-adv-x="697" 
d="M579 468v-468h-125v468h-200l-63 -468h-126l65 468h-93v71h626v-71h-84z" />
    <glyph glyph-name="uni2007" unicode="&#x2007;" 
 />
    <glyph glyph-name="uni2008" unicode="&#x2008;" horiz-adv-x="277" 
 />
    <glyph glyph-name="uni200B" unicode="&#x200b;" horiz-adv-x="0" 
 />
    <glyph glyph-name="endash" unicode="&#x2013;" horiz-adv-x="450" 
d="M0 290v82h450v-82h-450z" />
    <glyph glyph-name="emdash" unicode="&#x2014;" horiz-adv-x="900" 
d="M0 292v78h900v-78h-900z" />
    <glyph glyph-name="quoteleft" unicode="&#x2018;" horiz-adv-x="296" 
d="M162 543q-11 -17 -30 -26t-38 -9q-17 0 -31.5 8.5t-19.5 26.5l140 242h72z" />
    <glyph glyph-name="quoteright" unicode="&#x2019;" horiz-adv-x="296" 
d="M113 517h-72l93 242q11 17 30 26t38 9q17 0 31.5 -8.5t19.5 -26.5z" />
    <glyph glyph-name="quotesinglbase" unicode="&#x201a;" horiz-adv-x="296" 
d="M113 -145h-72l93 242q11 17 30 26t38 9q17 0 31.5 -8.5t19.5 -26.5z" />
    <glyph glyph-name="quotedblleft" unicode="&#x201c;" horiz-adv-x="503" 
d="M369 543q-11 -17 -30 -26t-38 -9q-17 0 -31.5 8.5t-19.5 26.5l140 242h72zM162 543q-11 -17 -30 -26t-38 -9q-17 0 -31.5 8.5t-19.5 26.5l140 242h72z" />
    <glyph glyph-name="quotedblright" unicode="&#x201d;" horiz-adv-x="503" 
d="M320 517h-72l93 242q11 17 30 26t38 9q17 0 31.5 -8.5t19.5 -26.5zM113 517h-72l93 242q11 17 30 26t38 9q17 0 31.5 -8.5t19.5 -26.5z" />
    <glyph glyph-name="quotedblbase" unicode="&#x201e;" horiz-adv-x="503" 
d="M320 -145h-72l93 242q11 17 30 26t38 9q17 0 31.5 -8.5t19.5 -26.5zM113 -145h-72l93 242q11 17 30 26t38 9q17 0 31.5 -8.5t19.5 -26.5z" />
    <glyph glyph-name="dagger" unicode="&#x2020;" horiz-adv-x="665" 
d="M385 443l12 -658h-129l11 658l-229 -10v111l229 -10l-11 251h129l-12 -251l230 10v-111z" />
    <glyph glyph-name="daggerdbl" unicode="&#x2021;" horiz-adv-x="665" 
d="M385 135l12 -350h-129l11 350l-229 -10v107l229 -9v223l-229 -9v107l229 -10l-11 251h129l-12 -251l230 10v-107l-230 9v-223l230 9v-107z" />
    <glyph glyph-name="bullet" unicode="&#x2022;" horiz-adv-x="382" 
d="M319 349q0 -27 -10 -50t-27.5 -40.5t-40.5 -27.5t-50 -10t-50 10t-40.5 27.5t-27.5 40.5t-10 50t10 50t27.5 40.5t40.5 27.5t50 10t50 -10t40.5 -27.5t27.5 -40.5t10 -50z" />
    <glyph glyph-name="ellipsis" unicode="&#x2026;" horiz-adv-x="828" 
d="M767 63q0 -29 -22.5 -49.5t-54.5 -20.5t-54.5 20.5t-22.5 49.5t22.5 49.5t54.5 20.5t54.5 -20.5t22.5 -49.5zM491 63q0 -29 -22.5 -49.5t-54.5 -20.5t-54.5 20.5t-22.5 49.5t22.5 49.5t54.5 20.5t54.5 -20.5t22.5 -49.5zM215 63q0 -29 -22.5 -49.5t-54.5 -20.5
t-54.5 20.5t-22.5 49.5t22.5 49.5t54.5 20.5t54.5 -20.5t22.5 -49.5z" />
    <glyph glyph-name="perthousand" unicode="&#x2030;" horiz-adv-x="1315" 
d="M1261 186q0 -38 -9.5 -73.5t-30 -63t-51.5 -44.5t-74 -17t-74 17t-51 44.5t-29.5 63t-9.5 73.5q0 37 9.5 73t29.5 63.5t51 44.5t74 17t74 -17t51.5 -44.5t30 -63.5t9.5 -73zM871 186q0 -38 -9.5 -73.5t-29.5 -63t-51 -44.5t-74 -17t-74 17t-51.5 44.5t-30 63t-9.5 73.5
q0 37 9.5 73t30 63.5t51.5 44.5t74 17t74 -17t51 -44.5t29.5 -63.5t9.5 -73zM376 -11l-67 22l240 688l67 -22zM384 502q0 -38 -9.5 -73.5t-30 -63t-51.5 -44.5t-74 -17t-74 17t-51.5 44.5t-30 63t-9.5 73.5q0 37 9.5 73t30 63.5t51.5 44.5t74 17t74 -17t51.5 -44.5t30 -63.5
t9.5 -73zM1177 188q0 28 -4 55t-13.5 47.5t-25 33t-38.5 12.5t-38.5 -12.5t-25 -33t-13.5 -47.5t-4 -55q0 -29 4 -55.5t13.5 -47.5t25 -33.5t38.5 -12.5t38.5 12.5t25 33.5t13.5 47.5t4 55.5zM788 188q0 28 -4 55t-13.5 47.5t-25 33t-38.5 12.5t-38.5 -12.5t-25.5 -33
t-14 -47.5t-4 -55q0 -29 4 -55.5t14 -47.5t25.5 -33.5t38.5 -12.5t38.5 12.5t25 33.5t13.5 47.5t4 55.5zM300 504q0 28 -4 55t-13.5 47.5t-25 33t-38.5 12.5t-38.5 -12.5t-25 -33t-13.5 -47.5t-4 -55q0 -29 4 -55.5t13.5 -47.5t25 -33.5t38.5 -12.5t38.5 12.5t25 33.5
t13.5 47.5t4 55.5z" />
    <glyph glyph-name="guilsinglleft" unicode="&#x2039;" horiz-adv-x="371" 
d="M237 110l-184 224l184 224l68 -41l-154 -183l154 -183z" />
    <glyph glyph-name="guilsinglright" unicode="&#x203a;" horiz-adv-x="371" 
d="M135 110l-69 41l154 183l-154 183l69 41l183 -224z" />
    <glyph glyph-name="fraction" unicode="&#x2044;" horiz-adv-x="134" 
d="M-72 -16l-65 31l310 689l66 -30z" />
    <glyph glyph-name="uni2070" unicode="&#x2070;" horiz-adv-x="402" 
d="M368 682q0 -39 -8 -77.5t-27.5 -69t-51.5 -49.5t-80 -19t-80 19t-51.5 49.5t-27.5 69t-8 77.5t8 77.5t27.5 69t51.5 49.5t80 19t80 -19t51.5 -49.5t27.5 -69t8 -77.5zM282 683q0 32 -4 61.5t-13 52.5t-24.5 36.5t-39.5 13.5t-39.5 -13.5t-24.5 -36.5t-13 -52.5t-4 -61.5
t4 -61.5t13 -52t24.5 -36t39.5 -13.5t39.5 13.5t24.5 36t13 52t4 61.5z" />
    <glyph glyph-name="uni2074" unicode="&#x2074;" horiz-adv-x="402" 
d="M323 563v-87h-86v87h-206v47l208 278h84v-279h47v-46h-47zM237 815q-8 -14 -17 -28t-18 -27l-112 -151h147v147q0 14 0.5 30t1.5 29h-2z" />
    <glyph glyph-name="uni2075" unicode="&#x2075;" horiz-adv-x="402" 
d="M354 598q0 -30 -13.5 -54t-37.5 -41t-57.5 -26.5t-74.5 -9.5q-47 0 -80.5 7t-59.5 18l22 52q19 -8 45.5 -13.5t57.5 -5.5q49 0 76.5 19.5t27.5 54.5q0 36 -28 58.5t-93 22.5q-17 0 -38 -2t-44 -6l26 216h256v-62h-195l-12 -104q25 3 50 3q81 0 126.5 -32t45.5 -95z" />
    <glyph glyph-name="uni2076" unicode="&#x2076;" horiz-adv-x="402" 
d="M369 600q0 -27 -11 -51t-32.5 -42.5t-52.5 -29t-70 -10.5q-83 0 -125.5 44.5t-42.5 116.5q0 58 23.5 104t62.5 79.5t89.5 55t104.5 30.5l16 -54q-66 -15 -116.5 -44t-76.5 -81q13 4 30 6t33 2q77 0 122.5 -31.5t45.5 -94.5zM285 602q0 83 -104 83q-16 0 -29.5 -2
t-27.5 -6q-3 -13 -4.5 -25t-1.5 -27q0 -49 21 -78t65 -29q42 0 61.5 25t19.5 59z" />
    <glyph glyph-name="uni2077" unicode="&#x2077;" horiz-adv-x="402" 
d="M307 760q-22 -42 -41.5 -83t-36 -78.5t-29 -69t-18.5 -53.5h-107l189 350h-228v62h337z" />
    <glyph glyph-name="uni2078" unicode="&#x2078;" horiz-adv-x="402" 
d="M369 578q0 -24 -12.5 -44.5t-34.5 -35t-53 -23t-68 -8.5q-35 0 -65.5 7.5t-53.5 21.5t-36 34.5t-13 46.5q0 22 8.5 38.5t23 30t34 24t40.5 20.5q-38 18 -64 41.5t-26 61.5q0 23 11.5 42t31.5 33t48 21.5t61 7.5t61 -7.5t48 -21.5t31.5 -33t11.5 -42q0 -37 -25.5 -59.5
t-63.5 -40.5q21 -10 40.5 -21t33.5 -24.5t22.5 -30.5t8.5 -39zM280 794q0 26 -21 41.5t-56 15.5q-36 0 -56.5 -15.5t-20.5 -41.5t22 -42t57 -33q34 17 54.5 33t20.5 42zM287 578q0 32 -24.5 51t-63.5 36q-39 -17 -63.5 -36t-24.5 -50q0 -27 26 -44.5t63 -17.5q39 0 63 17.5
t24 43.5z" />
    <glyph glyph-name="uni2079" unicode="&#x2079;" horiz-adv-x="402" 
d="M367 736q0 -58 -23.5 -104t-62.5 -79.5t-89.5 -55t-104.5 -30.5l-16 54q66 15 116.5 44t76.5 81q-13 -4 -30.5 -6t-33.5 -2q-77 0 -122 31.5t-45 94.5q0 27 11 51t32.5 42.5t52.5 29t70 10.5q83 0 125.5 -44.5t42.5 -116.5zM284 742q0 49 -21 77.5t-65 28.5
q-42 0 -61.5 -25t-19.5 -59q0 -82 104 -82q32 0 57 7q6 25 6 53z" />
    <glyph glyph-name="uni207A" unicode="&#x207a;" horiz-adv-x="388" 
d="M228 655v-97h-68v97h-109v58h109v97h68v-97h109v-58h-109z" />
    <glyph glyph-name="uni207B" unicode="&#x207b;" horiz-adv-x="388" 
d="M51 655v58h286v-58h-286z" />
    <glyph glyph-name="uni207C" unicode="&#x207c;" horiz-adv-x="388" 
d="M51 719v57h286v-57h-286zM51 592v58h286v-58h-286z" />
    <glyph glyph-name="uni207D" unicode="&#x207d;" horiz-adv-x="246" 
d="M189 382q-73 60 -112.5 136t-39.5 164t39.5 164t112.5 136l44 -30q-52 -57 -79.5 -126t-27.5 -144t27.5 -144t79.5 -126z" />
    <glyph glyph-name="uni207E" unicode="&#x207e;" horiz-adv-x="246" 
d="M209 682q0 -88 -39.5 -164t-112.5 -136l-44 30q52 57 79.5 126t27.5 144t-27.5 144t-79.5 126l44 30q73 -60 112.5 -136t39.5 -164z" />
    <glyph glyph-name="uni207F" unicode="&#x207f;" horiz-adv-x="430" 
d="M287 476v238q0 32 -21 49t-58 17q-19 0 -35 -2t-30 -7v-295h-90v329q33 13 74 19.5t81 6.5q82 0 125.5 -29.5t43.5 -86.5v-239h-90z" />
    <glyph glyph-name="uni2080" unicode="&#x2080;" horiz-adv-x="402" 
d="M368 -9q0 -39 -8 -77.5t-27.5 -69t-51.5 -49.5t-80 -19t-80 19t-51.5 49.5t-27.5 69t-8 77.5t8 77.5t27.5 69t51.5 49.5t80 19t80 -19t51.5 -49.5t27.5 -69t8 -77.5zM282 -8q0 32 -4 61.5t-13 52.5t-24.5 36.5t-39.5 13.5t-39.5 -13.5t-24.5 -36.5t-13 -52.5t-4 -61.5
t4 -61.5t13 -52t24.5 -36t39.5 -13.5t39.5 13.5t24.5 36t13 52t4 61.5z" />
    <glyph glyph-name="uni2081" unicode="&#x2081;" horiz-adv-x="402" 
d="M204 -215v322q-25 -9 -61.5 -16.5t-72.5 -9.5l-10 49q63 5 107.5 23.5t63.5 43.5h64v-412h-91z" />
    <glyph glyph-name="uni2082" unicode="&#x2082;" horiz-adv-x="402" 
d="M21 -215l184 204q26 29 36.5 50.5t10.5 41.5q0 30 -22.5 49t-67.5 19q-26 0 -50 -5t-47 -13l-19 51q28 11 62.5 17.5t70.5 6.5q45 0 76 -9.5t51 -26t29 -37.5t9 -44q0 -29 -17 -59t-49 -62l-117 -120h187v-63h-327z" />
    <glyph glyph-name="uni2083" unicode="&#x2083;" horiz-adv-x="402" 
d="M354 -93q0 -30 -13 -54t-37 -41t-57 -26.5t-72 -9.5q-86 0 -144 25l22 52q21 -9 48 -14t56 -5q48 0 75.5 19.5t27.5 53.5q0 21 -11 35.5t-29 23.5t-40.5 12.5t-45.5 3.5h-17v42q61 4 95.5 24t34.5 49q0 28 -24 40t-60 12q-25 0 -50 -4.5t-46 -12.5l-19 50q61 24 133 24
q31 0 59 -6t49 -18.5t33.5 -31.5t12.5 -44q0 -18 -8 -32.5t-20 -25.5t-27 -19t-28 -13v-2q19 -5 37 -14t32.5 -22t23.5 -30.5t9 -40.5z" />
    <glyph glyph-name="uni2084" unicode="&#x2084;" horiz-adv-x="402" 
d="M323 -128v-87h-86v87h-206v47l208 278h84v-279h47v-46h-47zM237 124q-8 -14 -17 -28t-18 -27l-112 -151h147v147q0 14 0.5 30t1.5 29h-2z" />
    <glyph glyph-name="uni2085" unicode="&#x2085;" horiz-adv-x="402" 
d="M354 -93q0 -30 -13.5 -54t-37.5 -41t-57.5 -26.5t-74.5 -9.5q-47 0 -80.5 7t-59.5 18l22 52q19 -8 45.5 -13.5t57.5 -5.5q49 0 76.5 19.5t27.5 54.5q0 36 -28 58.5t-93 22.5q-17 0 -38 -2t-44 -6l26 216h256v-62h-195l-12 -104q25 3 50 3q81 0 126.5 -32t45.5 -95z" />
    <glyph glyph-name="uni2086" unicode="&#x2086;" horiz-adv-x="402" 
d="M369 -91q0 -27 -11 -51t-32.5 -42.5t-52.5 -29t-70 -10.5q-83 0 -125.5 44.5t-42.5 116.5q0 58 23.5 104t62.5 79.5t89.5 55t104.5 30.5l16 -54q-66 -15 -116.5 -44t-76.5 -81q13 4 30 6t33 2q77 0 122.5 -31.5t45.5 -94.5zM285 -89q0 83 -104 83q-16 0 -29.5 -2
t-27.5 -6q-3 -13 -4.5 -25t-1.5 -27q0 -49 21 -78t65 -29q42 0 61.5 25t19.5 59z" />
    <glyph glyph-name="uni2087" unicode="&#x2087;" horiz-adv-x="402" 
d="M307 69q-22 -42 -41.5 -83t-36 -78.5t-29 -69t-18.5 -53.5h-107l189 350h-228v62h337z" />
    <glyph glyph-name="uni2088" unicode="&#x2088;" horiz-adv-x="402" 
d="M369 -113q0 -24 -12.5 -44.5t-34.5 -35t-53 -23t-68 -8.5q-35 0 -65.5 7.5t-53.5 21.5t-36 34.5t-13 46.5q0 22 8.5 38.5t23 30t34 24t40.5 20.5q-38 18 -64 41.5t-26 61.5q0 23 11.5 42t31.5 33t48 21.5t61 7.5t61 -7.5t48 -21.5t31.5 -33t11.5 -42q0 -37 -25.5 -59.5
t-63.5 -40.5q21 -10 40.5 -21t33.5 -24.5t22.5 -30.5t8.5 -39zM280 103q0 26 -21 41.5t-56 15.5q-36 0 -56.5 -15.5t-20.5 -41.5t22 -42t57 -33q34 17 54.5 33t20.5 42zM287 -113q0 32 -24.5 51t-63.5 36q-39 -17 -63.5 -36t-24.5 -50q0 -27 26 -44.5t63 -17.5q39 0 63 17.5
t24 43.5z" />
    <glyph glyph-name="uni2089" unicode="&#x2089;" horiz-adv-x="402" 
d="M367 45q0 -58 -23.5 -104t-62.5 -79.5t-89.5 -55t-104.5 -30.5l-16 54q66 15 116.5 44t76.5 81q-13 -4 -30.5 -6t-33.5 -2q-77 0 -122 31.5t-45 94.5q0 27 11 51t32.5 42.5t52.5 29t70 10.5q83 0 125.5 -44.5t42.5 -116.5zM284 51q0 49 -21 77.5t-65 28.5
q-42 0 -61.5 -25t-19.5 -59q0 -82 104 -82q32 0 57 7q6 25 6 53z" />
    <glyph glyph-name="uni208A" unicode="&#x208a;" horiz-adv-x="388" 
d="M228 -36v-97h-68v97h-109v58h109v97h68v-97h109v-58h-109z" />
    <glyph glyph-name="uni208B" unicode="&#x208b;" horiz-adv-x="388" 
d="M51 -36v58h286v-58h-286z" />
    <glyph glyph-name="uni208C" unicode="&#x208c;" horiz-adv-x="388" 
d="M51 28v57h286v-57h-286zM51 -99v58h286v-58h-286z" />
    <glyph glyph-name="uni208D" unicode="&#x208d;" horiz-adv-x="246" 
d="M189 -309q-73 60 -112.5 136t-39.5 164t39.5 164t112.5 136l44 -30q-52 -57 -79.5 -126t-27.5 -144t27.5 -144t79.5 -126z" />
    <glyph glyph-name="uni208E" unicode="&#x208e;" horiz-adv-x="246" 
d="M209 -9q0 -88 -39.5 -164t-112.5 -136l-44 30q52 57 79.5 126t27.5 144t-27.5 144t-79.5 126l44 30q73 -60 112.5 -136t39.5 -164z" />
    <glyph glyph-name="Euro" unicode="&#x20ac;" 
d="M586 25q-63 -37 -152 -37q-62 0 -111 19t-85 53.5t-59 82t-33 105.5l-99 -1v52h92q-1 11 -1 22v23q0 31 3 60h-94v51h102q11 55 34.5 100t59 77t83.5 50t108 18q89 0 152 -37l-33 -70q-21 13 -47 20t-58 7q-36 0 -64 -12.5t-48.5 -34t-34.5 -52t-21 -66.5h214v-51h-221
q-3 -29 -3 -60q0 -11 0.5 -22.5t1.5 -22.5h222v-52l-216 1q7 -38 20.5 -69.5t34.5 -55t49.5 -36.5t65.5 -13q61 0 105 27z" />
    <glyph glyph-name="uni20B4" unicode="&#x20b4;" 
d="M250 248q-13 -15 -21 -34t-8 -42q0 -51 36 -74.5t97 -23.5q40 0 79 8.5t71 24.5l30 -79q-38 -20 -87 -30t-106 -10q-112 0 -175.5 46t-63.5 138q0 43 14 76l-69 -1v52h103q16 18 36 32t41 26.5t42.5 23.5t41.5 23h-264v51h330q11 14 18 31t7 38q0 45 -30.5 70t-93.5 25
q-36 0 -70.5 -7.5t-65.5 -22.5l-28 72q38 19 82.5 29t94.5 10q112 0 169 -47.5t57 -128.5q0 -39 -12 -69h69v-51h-102q-31 -35 -74 -58.5t-82 -46.5h258v-52z" />
    <glyph glyph-name="afii61352" unicode="&#x2116;" horiz-adv-x="1115" 
d="M1067 334q0 -38 -11 -72.5t-33.5 -60.5t-56 -41.5t-79.5 -15.5t-79.5 15.5t-55.5 41.5t-33 60.5t-11 72.5t11 72.5t33 60.5t55.5 41.5t79.5 15.5t79.5 -15.5t56 -41.5t33.5 -60.5t11 -72.5zM720 0v65h335v-65h-335zM522 0l-305 470q-11 17 -21.5 35t-18.5 36h-2
q2 -20 2.5 -42t0.5 -43v-456h-105v688h124l286 -441q24 -38 41 -73h2q-2 20 -3 41.5t-1 41.5v431h105v-688h-105zM979 335q0 27 -4.5 51t-15 42.5t-28 29.5t-44.5 11t-44.5 -11t-28 -29.5t-14.5 -42.5t-4 -51t4 -51t14.5 -42.5t28 -29.5t44.5 -11t44.5 11t28 29.5t15 42.5
t4.5 51z" />
    <glyph glyph-name="uni2117" unicode="&#x2117;" horiz-adv-x="879" 
d="M825 344q0 -74 -30.5 -139t-83 -113t-122.5 -76t-150 -28t-150 28t-122.5 76t-82.5 113t-30 139t30 139t82.5 113t122.5 76t150 28t150 -28t122.5 -76t83 -113t30.5 -139zM752 345q0 62 -24.5 116t-67 94.5t-99.5 64t-122 23.5t-122 -23.5t-99 -64t-66.5 -94.5
t-24.5 -116t24.5 -116t66.5 -94.5t99 -64t122 -23.5t122 23.5t99.5 64t67 94.5t24.5 116zM595 429q0 -25 -8.5 -47t-26.5 -38.5t-45.5 -26.5t-66.5 -10q-14 0 -26 0.5t-20 2.5v-161h-70v378q22 11 51 16.5t61 5.5q80 0 115.5 -33.5t35.5 -86.5zM525 429q0 39 -19 59t-64 20
q-11 0 -22 -2t-18 -4v-151q7 -1 15.5 -1.5t19.5 -0.5q49 0 68.5 22.5t19.5 57.5z" />
    <glyph glyph-name="trademark" unicode="&#x2122;" horiz-adv-x="901" 
d="M770 340l-41 291l-99 -291h-58l-104 290l-39 -290h-64l55 348h87l95 -286l90 286h85l59 -348h-66zM226 644v-304h-64v304h-117v44h296v-44h-115z" />
    <glyph glyph-name="Omega" unicode="&#x2126;" horiz-adv-x="742" 
d="M427 0v72q59 66 91.5 144t32.5 163q0 53 -11.5 97.5t-34 76.5t-56 50t-78.5 18t-79 -18t-56.5 -50t-33.5 -76.5t-11 -97.5q0 -85 32.5 -163t91.5 -144v-72h-272v78h153q-62 69 -101.5 145t-39.5 170q0 65 21 121t61.5 97.5t99.5 65t134 23.5t133.5 -23.5t99 -65t62 -97.5
t21.5 -121q0 -94 -39.5 -170t-101.5 -145h153v-78h-272z" />
    <glyph glyph-name="onethird" unicode="&#x2153;" horiz-adv-x="938" 
d="M321 -16l-66 31l311 689l66 -30zM204 276v322q-25 -9 -61.5 -16.5t-72.5 -9.5l-10 49q63 5 107.5 23.5t63.5 43.5h64v-412h-91zM887 122q0 -30 -13 -54t-37 -41t-57 -26.5t-72 -9.5q-86 0 -144 25l22 52q21 -9 48 -14t56 -5q48 0 75.5 19.5t27.5 53.5q0 21 -11 35.5
t-29 23.5t-40.5 12.5t-45.5 3.5h-17v42q61 4 95.5 24t34.5 49q0 28 -24 40t-60 12q-25 0 -50 -4.5t-46 -12.5l-19 50q61 24 133 24q31 0 59 -6t49 -18.5t33.5 -31.5t12.5 -44q0 -18 -8 -32.5t-20 -25.5t-27 -19t-28 -13v-2q19 -5 37 -14t32.5 -22t23.5 -30.5t9 -40.5z" />
    <glyph glyph-name="twothirds" unicode="&#x2154;" horiz-adv-x="938" 
d="M347 -16l-66 31l311 689l66 -30zM21 276l184 204q26 29 36.5 50.5t10.5 41.5q0 30 -22.5 49t-67.5 19q-26 0 -50 -5t-47 -13l-19 51q28 11 62.5 17.5t70.5 6.5q45 0 76 -9.5t51 -26t29 -37.5t9 -44q0 -29 -17 -59t-49 -62l-117 -120h187v-63h-327zM887 122q0 -30 -13 -54
t-37 -41t-57 -26.5t-72 -9.5q-86 0 -144 25l22 52q21 -9 48 -14t56 -5q48 0 75.5 19.5t27.5 53.5q0 21 -11 35.5t-29 23.5t-40.5 12.5t-45.5 3.5h-17v42q61 4 95.5 24t34.5 49q0 28 -24 40t-60 12q-25 0 -50 -4.5t-46 -12.5l-19 50q61 24 133 24q31 0 59 -6t49 -18.5
t33.5 -31.5t12.5 -44q0 -18 -8 -32.5t-20 -25.5t-27 -19t-28 -13v-2q19 -5 37 -14t32.5 -22t23.5 -30.5t9 -40.5z" />
    <glyph glyph-name="uni2155" unicode="&#x2155;" horiz-adv-x="938" 
d="M329 -16l-66 31l311 689l66 -30zM204 276v322q-25 -9 -61.5 -16.5t-72.5 -9.5l-10 49q63 5 107.5 23.5t63.5 43.5h64v-412h-91zM891 122q0 -30 -13.5 -54t-37.5 -41t-57.5 -26.5t-74.5 -9.5q-47 0 -80.5 7t-59.5 18l22 52q19 -8 45.5 -13.5t57.5 -5.5q49 0 76.5 19.5
t27.5 54.5q0 36 -28 58.5t-93 22.5q-17 0 -38 -2t-44 -6l26 216h256v-62h-195l-12 -104q25 3 50 3q81 0 126.5 -32t45.5 -95z" />
    <glyph glyph-name="uni2156" unicode="&#x2156;" horiz-adv-x="938" 
d="M359 -16l-65 31l310 689l66 -30zM21 276l184 204q26 29 36.5 50.5t10.5 41.5q0 30 -22.5 49t-67.5 19q-26 0 -50 -5t-47 -13l-19 51q28 11 62.5 17.5t70.5 6.5q45 0 76 -9.5t51 -26t29 -37.5t9 -44q0 -29 -17 -59t-49 -62l-117 -120h187v-63h-327zM891 122
q0 -30 -13.5 -54t-37.5 -41t-57.5 -26.5t-74.5 -9.5q-47 0 -80.5 7t-59.5 18l22 52q19 -8 45.5 -13.5t57.5 -5.5q49 0 76.5 19.5t27.5 54.5q0 36 -28 58.5t-93 22.5q-17 0 -38 -2t-44 -6l26 216h256v-62h-195l-12 -104q25 3 50 3q81 0 126.5 -32t45.5 -95z" />
    <glyph glyph-name="uni2157" unicode="&#x2157;" horiz-adv-x="938" 
d="M347 -16l-66 31l311 689l66 -30zM354 398q0 -30 -13 -54t-37 -41t-57 -26.5t-72 -9.5q-86 0 -144 25l22 52q21 -9 48 -14t56 -5q48 0 75.5 19.5t27.5 53.5q0 21 -11 35.5t-29 23.5t-40.5 12.5t-45.5 3.5h-17v42q61 4 95.5 24t34.5 49q0 28 -24 40t-60 12q-25 0 -50 -4.5
t-46 -12.5l-19 50q61 24 133 24q31 0 59 -6t49 -18.5t33.5 -31.5t12.5 -44q0 -18 -8 -32.5t-20 -25.5t-27 -19t-28 -13v-2q19 -5 37 -14t32.5 -22t23.5 -30.5t9 -40.5zM891 122q0 -30 -13.5 -54t-37.5 -41t-57.5 -26.5t-74.5 -9.5q-47 0 -80.5 7t-59.5 18l22 52
q19 -8 45.5 -13.5t57.5 -5.5q49 0 76.5 19.5t27.5 54.5q0 36 -28 58.5t-93 22.5q-17 0 -38 -2t-44 -6l26 216h256v-62h-195l-12 -104q25 3 50 3q81 0 126.5 -32t45.5 -95z" />
    <glyph glyph-name="uni2158" unicode="&#x2158;" horiz-adv-x="938" 
d="M354 -16l-65 31l310 689l66 -30zM323 363v-87h-86v87h-206v47l208 278h84v-279h47v-46h-47zM237 615q-8 -14 -17 -28t-18 -27l-112 -151h147v147q0 14 0.5 29.5t1.5 29.5h-2zM891 122q0 -30 -13.5 -54t-37.5 -41t-57.5 -26.5t-74.5 -9.5q-47 0 -80.5 7t-59.5 18l22 52
q19 -8 45.5 -13.5t57.5 -5.5q49 0 76.5 19.5t27.5 54.5q0 36 -28 58.5t-93 22.5q-17 0 -38 -2t-44 -6l26 216h256v-62h-195l-12 -104q25 3 50 3q81 0 126.5 -32t45.5 -95z" />
    <glyph glyph-name="uni2159" unicode="&#x2159;" horiz-adv-x="938" 
d="M898 124q0 -27 -11 -51t-32.5 -42.5t-52.5 -29t-70 -10.5q-83 0 -125.5 44.5t-42.5 116.5q0 58 23.5 104t62.5 79.5t89.5 55t104.5 30.5l15 -54q-66 -15 -116.5 -44t-76.5 -81q13 4 30.5 6t33.5 2q77 0 122.5 -31.5t45.5 -94.5zM342 -16l-66 31l311 689l66 -30zM204 276
v322q-25 -9 -61.5 -16.5t-72.5 -9.5l-10 49q63 5 107.5 23.5t63.5 43.5h64v-412h-91zM814 126q0 83 -104 83q-29 0 -58 -8q-3 -13 -4.5 -25t-1.5 -27q0 -49 21.5 -78t65.5 -29q42 0 61.5 25t19.5 59z" />
    <glyph glyph-name="uni215A" unicode="&#x215a;" horiz-adv-x="938" 
d="M898 124q0 -27 -11 -51t-32.5 -42.5t-52.5 -29t-70 -10.5q-83 0 -125.5 44.5t-42.5 116.5q0 58 23.5 104t62.5 79.5t89.5 55t104.5 30.5l15 -54q-66 -15 -116.5 -44t-76.5 -81q13 4 30.5 6t33.5 2q77 0 122.5 -31.5t45.5 -94.5zM360 -16l-66 31l311 689l66 -30zM814 126
q0 83 -104 83q-29 0 -58 -8q-3 -13 -4.5 -25t-1.5 -27q0 -49 21.5 -78t65.5 -29q42 0 61.5 25t19.5 59zM354 398q0 -30 -13.5 -54t-37.5 -41t-57.5 -26.5t-74.5 -9.5q-47 0 -80.5 7t-59.5 18l22 52q19 -8 45.5 -13.5t57.5 -5.5q49 0 76.5 19.5t27.5 54.5q0 36 -28 58.5
t-93 22.5q-17 0 -38 -2t-44 -6l26 216h256v-62h-195l-12 -104q25 3 50 3q81 0 126.5 -32t45.5 -95z" />
    <glyph glyph-name="oneeighth" unicode="&#x215b;" horiz-adv-x="938" 
d="M905 102q0 -24 -12.5 -44.5t-34.5 -35t-53 -23t-68 -8.5q-35 0 -65.5 7.5t-53.5 21.5t-36 34.5t-13 46.5q0 22 8.5 38.5t23.5 30t34.5 24t40.5 20.5q-38 18 -64.5 41.5t-26.5 61.5q0 23 11.5 42t31.5 33t48 21.5t61 7.5t61 -7.5t48 -21.5t31.5 -33t11.5 -42
q0 -37 -25.5 -59.5t-63.5 -40.5q21 -10 40.5 -21t33.5 -24.5t22.5 -30.5t8.5 -39zM330 -16l-66 31l311 689l66 -30zM204 276v322q-25 -9 -61.5 -16.5t-72.5 -9.5l-10 49q63 5 107.5 23.5t63.5 43.5h64v-412h-91zM816 318q0 26 -21 41.5t-56 15.5q-36 0 -56.5 -15.5
t-20.5 -41.5t22 -42t57 -33q34 17 54.5 33t20.5 42zM823 102q0 32 -24.5 51t-63.5 36q-39 -17 -63.5 -36t-24.5 -50q0 -27 26 -44.5t63 -17.5q39 0 63 17.5t24 43.5z" />
    <glyph glyph-name="threeeighths" unicode="&#x215c;" horiz-adv-x="938" 
d="M905 102q0 -24 -12.5 -44.5t-34.5 -35t-53 -23t-68 -8.5q-35 0 -65.5 7.5t-53.5 21.5t-36 34.5t-13 46.5q0 22 8.5 38.5t23.5 30t34.5 24t40.5 20.5q-38 18 -64.5 41.5t-26.5 61.5q0 23 11.5 42t31.5 33t48 21.5t61 7.5t61 -7.5t48 -21.5t31.5 -33t11.5 -42
q0 -37 -25.5 -59.5t-63.5 -40.5q21 -10 40.5 -21t33.5 -24.5t22.5 -30.5t8.5 -39zM342 -16l-66 31l311 689l66 -30zM816 318q0 26 -21 41.5t-56 15.5q-36 0 -56.5 -15.5t-20.5 -41.5t22 -42t57 -33q34 17 54.5 33t20.5 42zM823 102q0 32 -24.5 51t-63.5 36
q-39 -17 -63.5 -36t-24.5 -50q0 -27 26 -44.5t63 -17.5q39 0 63 17.5t24 43.5zM354 398q0 -30 -13 -54t-37 -41t-57 -26.5t-72 -9.5q-86 0 -144 25l22 52q21 -9 48 -14t56 -5q48 0 75.5 19.5t27.5 53.5q0 21 -11 35.5t-29 23.5t-40.5 12.5t-45.5 3.5h-17v42q61 4 95.5 24
t34.5 49q0 28 -24 40t-60 12q-25 0 -50 -4.5t-46 -12.5l-19 50q61 24 133 24q31 0 59 -6t49 -18.5t33.5 -31.5t12.5 -44q0 -18 -8 -32.5t-20 -25.5t-27 -19t-28 -13v-2q19 -5 37 -14t32.5 -22t23.5 -30.5t9 -40.5z" />
    <glyph glyph-name="fiveeighths" unicode="&#x215d;" horiz-adv-x="938" 
d="M905 102q0 -24 -12.5 -44.5t-34.5 -35t-53 -23t-68 -8.5q-35 0 -65.5 7.5t-53.5 21.5t-36 34.5t-13 46.5q0 22 8.5 38.5t23.5 30t34.5 24t40.5 20.5q-38 18 -64.5 41.5t-26.5 61.5q0 23 11.5 42t31.5 33t48 21.5t61 7.5t61 -7.5t48 -21.5t31.5 -33t11.5 -42
q0 -37 -25.5 -59.5t-63.5 -40.5q21 -10 40.5 -21t33.5 -24.5t22.5 -30.5t8.5 -39zM342 -16l-66 31l311 689l66 -30zM816 318q0 26 -21 41.5t-56 15.5q-36 0 -56.5 -15.5t-20.5 -41.5t22 -42t57 -33q34 17 54.5 33t20.5 42zM823 102q0 32 -24.5 51t-63.5 36
q-39 -17 -63.5 -36t-24.5 -50q0 -27 26 -44.5t63 -17.5q39 0 63 17.5t24 43.5zM354 398q0 -30 -13.5 -54t-37.5 -41t-57.5 -26.5t-74.5 -9.5q-47 0 -80.5 7t-59.5 18l22 52q19 -8 45.5 -13.5t57.5 -5.5q49 0 76.5 19.5t27.5 54.5q0 36 -28 58.5t-93 22.5q-17 0 -38 -2
t-44 -6l26 216h256v-62h-195l-12 -104q25 3 50 3q81 0 126.5 -32t45.5 -95z" />
    <glyph glyph-name="seveneighths" unicode="&#x215e;" horiz-adv-x="938" 
d="M905 102q0 -24 -12.5 -44.5t-34.5 -35t-53 -23t-68 -8.5q-35 0 -65.5 7.5t-53.5 21.5t-36 34.5t-13 46.5q0 22 8.5 38.5t23.5 30t34.5 24t40.5 20.5q-38 18 -64.5 41.5t-26.5 61.5q0 23 11.5 42t31.5 33t48 21.5t61 7.5t61 -7.5t48 -21.5t31.5 -33t11.5 -42
q0 -37 -25.5 -59.5t-63.5 -40.5q21 -10 40.5 -21t33.5 -24.5t22.5 -30.5t8.5 -39zM308 -16l-66 31l311 689l66 -30zM324 560q-22 -42 -41.5 -83t-36 -78.5t-29 -69t-18.5 -53.5h-108l189 350h-227v62h337zM816 318q0 26 -21 41.5t-56 15.5q-36 0 -56.5 -15.5t-20.5 -41.5
t22 -42t57 -33q34 17 54.5 33t20.5 42zM823 102q0 32 -24.5 51t-63.5 36q-39 -17 -63.5 -36t-24.5 -50q0 -27 26 -44.5t63 -17.5q39 0 63 17.5t24 43.5z" />
    <glyph glyph-name="uni215F" unicode="&#x215f;" horiz-adv-x="536" 
d="M330 -16l-66 31l311 689l66 -30zM204 276v322q-25 -9 -61.5 -16.5t-72.5 -9.5l-10 49q63 5 107.5 23.5t63.5 43.5h64v-412h-91z" />
    <glyph glyph-name="arrowleft" unicode="&#x2190;" horiz-adv-x="940" 
d="M215 292l184 -184l-56 -54l-277 277l277 277l56 -55l-184 -183h729v-78h-729z" />
    <glyph glyph-name="arrowup" unicode="&#x2191;" horiz-adv-x="694" 
d="M574 460l-185 185v-645h-84v645l-185 -185l-54 55l281 280l281 -280z" />
    <glyph glyph-name="arrowright" unicode="&#x2192;" horiz-adv-x="940" 
d="M597 54l-56 54l184 184h-729v78h729l-184 183l56 55l277 -277z" />
    <glyph glyph-name="arrowdown" unicode="&#x2193;" horiz-adv-x="694" 
d="M347 -10l-281 280l54 55l185 -185v645h84v-645l185 185l54 -55z" />
    <glyph glyph-name="arrowboth" unicode="&#x2194;" horiz-adv-x="1200" 
d="M857 54l-56 54l184 184h-770l184 -184l-56 -54l-277 277l277 277l56 -55l-184 -183h770l-184 183l56 55l277 -277z" />
    <glyph glyph-name="uni21E6" unicode="&#x21e6;" horiz-adv-x="884" 
d="M415 200v-200h-47l-344 344l344 344h47v-200l393 39v-366zM737 449l-389 -37v155l-223 -223l223 -223v155l389 -37v210z" />
    <glyph glyph-name="uni21E7" unicode="&#x21e7;" horiz-adv-x="784" 
d="M537 393l43 -393h-377l43 393h-199v46l345 345l345 -345v-46h-200zM392 683l-227 -226h159l-35 -389h206l-36 389h159z" />
    <glyph glyph-name="uni21E8" unicode="&#x21e8;" horiz-adv-x="884" 
d="M516 0h-47v200l-393 -39v366l393 -39v200h47l344 -344zM536 567v-155l-389 37v-210l389 37v-155l223 223z" />
    <glyph glyph-name="uni21E9" unicode="&#x21e9;" horiz-adv-x="784" 
d="M392 -96l-345 345v46h199l-43 393h377l-43 -393h200v-46zM459 231l36 389h-206l35 -389h-159l227 -226l226 226h-159z" />
    <glyph glyph-name="partialdiff" unicode="&#x2202;" 
d="M568 252q0 -60 -16.5 -109t-49.5 -83.5t-82 -53t-113 -18.5q-58 0 -105 16.5t-80.5 46t-51.5 70.5t-18 89q0 52 18 91t52 65t81 39t106 13q31 0 59.5 -6t51.5 -16q-19 49 -50.5 86.5t-71 64.5t-85 45t-92.5 29l19 79q79 -15 156 -50t137.5 -90.5t97.5 -132t37 -175.5z
M450 247q0 46 -9 84q-23 10 -52.5 17t-59.5 7q-74 0 -116 -35t-42 -108q0 -31 9 -58.5t26.5 -47.5t42 -32t56.5 -12q72 0 108.5 50t36.5 135z" />
    <glyph glyph-name="Delta" unicode="&#x2206;" horiz-adv-x="712" 
d="M14 0l281 688h122l281 -688h-684zM377 502q-9 23 -15 45.5t-11 42.5h-2q-5 -21 -11 -42.5t-15 -45.5l-159 -431h371z" />
    <glyph glyph-name="product" unicode="&#x220f;" horiz-adv-x="873" 
d="M709 610v-825h-131v825h-283v-825h-132v825h-132v78h811v-78h-133z" />
    <glyph glyph-name="summation" unicode="&#x2211;" 
d="M51 -215l285 484l-283 419h508v-78h-317l226 -325l-243 -409h347v-91h-523z" />
    <glyph glyph-name="minus" unicode="&#x2212;" horiz-adv-x="592" 
d="M63 292v78h466v-78h-466z" />
    <glyph glyph-name="uni2219" unicode="&#x2219;" horiz-adv-x="592" 
d="M424 349q0 -27 -10 -50t-27.5 -40.5t-40.5 -27.5t-50 -10t-50 10t-40.5 27.5t-27.5 40.5t-10 50t10 50t27.5 40.5t40.5 27.5t50 10t50 -10t40.5 -27.5t27.5 -40.5t10 -50z" />
    <glyph glyph-name="radical" unicode="&#x221a;" 
d="M388 0h-109l-160 437h-96v64h193l113 -367h2l156 651h111z" />
    <glyph glyph-name="infinity" unicode="&#x221e;" horiz-adv-x="850" 
d="M798 338q0 -41 -13 -76t-36.5 -61t-57.5 -40.5t-76 -14.5q-34 0 -61.5 9.5t-50.5 26t-42 39t-37 48.5q-18 -26 -37 -48.5t-41 -39t-48.5 -26t-60.5 -9.5q-42 0 -76 14.5t-58.5 40t-37.5 60.5t-13 77q0 40 13 75.5t37.5 61.5t58.5 41t76 15q34 0 60.5 -10t49 -27
t41.5 -39.5t37 -48.5q17 25 35.5 47.5t41 40t50 27.5t61.5 10q42 0 76 -15t58.5 -41.5t37.5 -61.5t13 -75zM720 339q0 48 -29 77.5t-78 29.5q-47 0 -78.5 -29t-61.5 -75q31 -47 62.5 -78t78.5 -31q49 0 77.5 29t28.5 77zM376 334q-30 46 -61.5 77t-78.5 31q-49 0 -78 -29
t-29 -77q0 -47 29.5 -77t77.5 -30q24 0 43 8t35.5 22.5t31.5 33.5t30 41z" />
    <glyph glyph-name="integral" unicode="&#x222b;" horiz-adv-x="463" 
d="M413 708q-23 6 -47 6q-51 0 -76.5 -28.5t-25.5 -81.5v-632q0 -91 -53.5 -141.5t-149.5 -50.5q-23 0 -46 3t-40 8l17 75q22 -6 47 -6q51 0 76 28t25 81v630q0 91 53.5 141t149.5 50q23 0 46 -3t40 -8z" />
    <glyph glyph-name="approxequal" unicode="&#x2248;" horiz-adv-x="592" 
d="M529 404q-17 -16 -47.5 -32.5t-77.5 -16.5q-30 0 -56.5 11t-52 23.5t-52 23.5t-56.5 11q-45 0 -74.5 -15.5t-49.5 -32.5v78q17 16 47 31.5t77 15.5q31 0 57 -11t51.5 -23.5t52 -23.5t56.5 -11q45 0 75 16.5t50 33.5v-78zM529 210q-17 -16 -47.5 -32.5t-77.5 -16.5
q-30 0 -56.5 11t-52 23.5t-52 23.5t-56.5 11q-45 0 -74.5 -15.5t-49.5 -32.5v78q17 16 47 31.5t77 15.5q31 0 57 -11t51.5 -23.5t52 -23.5t56.5 -11q45 0 75 16t50 33v-77z" />
    <glyph glyph-name="notequal" unicode="&#x2260;" horiz-adv-x="592" 
d="M257 195l-67 -123l-52 29l52 94h-127v78h168l64 116h-232v77h272l67 123l52 -29l-52 -94h127v-77h-167l-65 -116h232v-78h-272z" />
    <glyph glyph-name="lessequal" unicode="&#x2264;" horiz-adv-x="592" 
d="M63 322v67l466 172v-81l-361 -124v-2l361 -124v-80zM63 0v72h466v-72h-466z" />
    <glyph glyph-name="greaterequal" unicode="&#x2265;" horiz-adv-x="592" 
d="M63 150v80l361 124v2l-361 124v81l466 -172v-67zM63 0v72h466v-72h-466z" />
    <glyph glyph-name="dotmath" unicode="&#x22c5;" horiz-adv-x="592" 
d="M373 332q0 -29 -22.5 -49.5t-54.5 -20.5t-54.5 20.5t-22.5 49.5t22.5 49.5t54.5 20.5t54.5 -20.5t22.5 -49.5z" />
    <glyph glyph-name="uni2460" unicode="&#x2460;" horiz-adv-x="998" 
d="M944 392q0 -88 -35.5 -162t-96.5 -128t-142 -84t-171 -30t-171 30t-142 84t-96.5 128t-35.5 162t35.5 162t96.5 128t142 84t171 30t171 -30t142 -84t96.5 -128t35.5 -162zM855 393q0 73 -28 136.5t-76 110t-113 73t-139 26.5t-139 -26.5t-113.5 -73t-76.5 -110
t-28 -136.5q0 -74 28 -137t76.5 -109.5t113.5 -73t139 -26.5t139 26.5t113 73t76 109.5t28 137zM484 192v322q-25 -9 -61.5 -16.5t-72.5 -9.5l-10 49q63 5 107.5 23.5t63.5 43.5h64v-412h-91z" />
    <glyph glyph-name="uni2461" unicode="&#x2461;" horiz-adv-x="998" 
d="M944 392q0 -88 -35.5 -162t-96.5 -128t-142 -84t-171 -30t-171 30t-142 84t-96.5 128t-35.5 162t35.5 162t96.5 128t142 84t171 30t171 -30t142 -84t96.5 -128t35.5 -162zM855 393q0 73 -28 136.5t-76 110t-113 73t-139 26.5t-139 -26.5t-113.5 -73t-76.5 -110
t-28 -136.5q0 -74 28 -137t76.5 -109.5t113.5 -73t139 -26.5t139 26.5t113 73t76 109.5t28 137zM333 192l184 204q26 29 36.5 50.5t10.5 41.5q0 30 -22.5 49t-67.5 19q-26 0 -50 -5t-47 -13l-20 51q28 11 63 17.5t71 6.5q45 0 76 -9.5t51 -26t29 -37.5t9 -44q0 -29 -17 -59
t-49 -62l-118 -120h188v-63h-327z" />
    <glyph glyph-name="uni2462" unicode="&#x2462;" horiz-adv-x="998" 
d="M944 392q0 -88 -35.5 -162t-96.5 -128t-142 -84t-171 -30t-171 30t-142 84t-96.5 128t-35.5 162t35.5 162t96.5 128t142 84t171 30t171 -30t142 -84t96.5 -128t35.5 -162zM855 393q0 73 -28 136.5t-76 110t-113 73t-139 26.5t-139 -26.5t-113.5 -73t-76.5 -110
t-28 -136.5q0 -74 28 -137t76.5 -109.5t113.5 -73t139 -26.5t139 26.5t113 73t76 109.5t28 137zM671 314q0 -30 -13.5 -54t-37.5 -41t-57 -26.5t-73 -9.5q-45 0 -80.5 6.5t-63.5 18.5l22 52q20 -8 47.5 -13.5t57.5 -5.5q50 0 76.5 20.5t26.5 52.5q0 21 -11 35.5t-29 23.5
t-41 12.5t-46 3.5h-16v42q63 4 96.5 24.5t33.5 48.5t-24.5 40t-60.5 12q-52 0 -95 -17l-19 50q28 11 60.5 17.5t71.5 6.5q68 0 111.5 -26t43.5 -74q0 -18 -8 -32.5t-20.5 -25.5t-27.5 -19t-28 -13v-2q19 -5 37.5 -14t33.5 -21.5t24 -30.5t9 -41z" />
    <glyph glyph-name="uni2463" unicode="&#x2463;" horiz-adv-x="998" 
d="M944 392q0 -88 -35.5 -162t-96.5 -128t-142 -84t-171 -30t-171 30t-142 84t-96.5 128t-35.5 162t35.5 162t96.5 128t142 84t171 30t171 -30t142 -84t96.5 -128t35.5 -162zM855 393q0 73 -28 136.5t-76 110t-113 73t-139 26.5t-139 -26.5t-113.5 -73t-76.5 -110
t-28 -136.5q0 -74 28 -137t76.5 -109.5t113.5 -73t139 -26.5t139 26.5t113 73t76 109.5t28 137zM601 279v-87h-86v87h-206v47l208 278h84v-279h47v-46h-47zM516 531q-8 -14 -17.5 -28t-18.5 -27l-112 -151h148v147q0 14 0.5 29.5t1.5 29.5h-2z" />
    <glyph glyph-name="uni2464" unicode="&#x2464;" horiz-adv-x="998" 
d="M944 392q0 -88 -35.5 -162t-96.5 -128t-142 -84t-171 -30t-171 30t-142 84t-96.5 128t-35.5 162t35.5 162t96.5 128t142 84t171 30t171 -30t142 -84t96.5 -128t35.5 -162zM855 393q0 73 -28 136.5t-76 110t-113 73t-139 26.5t-139 -26.5t-113.5 -73t-76.5 -110
t-28 -136.5q0 -74 28 -137t76.5 -109.5t113.5 -73t139 -26.5t139 26.5t113 73t76 109.5t28 137zM663 314q0 -60 -51 -95.5t-134 -35.5q-47 0 -80.5 7t-59.5 18l22 52q17 -7 44 -13t60 -6q50 0 77 19.5t27 54.5q0 36 -28 58.5t-94 22.5q-17 0 -38 -2t-44 -6l27 216h255v-62
h-194l-13 -104q25 3 49 3q88 0 131.5 -34t43.5 -93z" />
    <glyph glyph-name="uni2465" unicode="&#x2465;" horiz-adv-x="998" 
d="M944 392q0 -88 -35.5 -162t-96.5 -128t-142 -84t-171 -30t-171 30t-142 84t-96.5 128t-35.5 162t35.5 162t96.5 128t142 84t171 30t171 -30t142 -84t96.5 -128t35.5 -162zM855 393q0 73 -28 136.5t-76 110t-113 73t-139 26.5t-139 -26.5t-113.5 -73t-76.5 -110
t-28 -136.5q0 -74 28 -137t76.5 -109.5t113.5 -73t139 -26.5t139 26.5t113 73t76 109.5t28 137zM659 316q0 -27 -11 -51t-32.5 -42.5t-52.5 -29t-70 -10.5q-83 0 -125.5 44.5t-42.5 116.5q0 58 23.5 104t62.5 79.5t89.5 55t104.5 30.5l15 -54q-66 -15 -116.5 -44t-76.5 -81
q13 4 30.5 6.5t33.5 2.5q77 0 122.5 -32t45.5 -95zM575 318q0 83 -104 83q-29 0 -58 -8q-3 -13 -4.5 -25t-1.5 -27q0 -49 21.5 -78t65.5 -29q42 0 61.5 25t19.5 59z" />
    <glyph glyph-name="uni2466" unicode="&#x2466;" horiz-adv-x="998" 
d="M944 392q0 -88 -35.5 -162t-96.5 -128t-142 -84t-171 -30t-171 30t-142 84t-96.5 128t-35.5 162t35.5 162t96.5 128t142 84t171 30t171 -30t142 -84t96.5 -128t35.5 -162zM855 393q0 73 -28 136.5t-76 110t-113 73t-139 26.5t-139 -26.5t-113.5 -73t-76.5 -110
t-28 -136.5q0 -74 28 -137t76.5 -109.5t113.5 -73t139 -26.5t139 26.5t113 73t76 109.5t28 137zM611 476q-21 -42 -40 -83t-34.5 -78.5t-27 -69t-17.5 -53.5h-107l182 350h-218v62h328z" />
    <glyph glyph-name="uni2467" unicode="&#x2467;" horiz-adv-x="998" 
d="M944 392q0 -88 -35.5 -162t-96.5 -128t-142 -84t-171 -30t-171 30t-142 84t-96.5 128t-35.5 162t35.5 162t96.5 128t142 84t171 30t171 -30t142 -84t96.5 -128t35.5 -162zM855 393q0 73 -28 136.5t-76 110t-113 73t-139 26.5t-139 -26.5t-113.5 -73t-76.5 -110
t-28 -136.5q0 -74 28 -137t76.5 -109.5t113.5 -73t139 -26.5t139 26.5t113 73t76 109.5t28 137zM667 294q0 -24 -12.5 -44.5t-34.5 -35t-53 -23t-68 -8.5q-35 0 -65.5 7.5t-53.5 21.5t-36 34.5t-13 46.5q0 22 8.5 38.5t23.5 30t34.5 24t40.5 20.5q-38 18 -64.5 41.5
t-26.5 61.5q0 23 11.5 42t31.5 33t48 21.5t61 7.5t61 -7.5t48 -21.5t31.5 -33t11.5 -42q0 -37 -25.5 -59.5t-63.5 -40.5q21 -10 40.5 -21t33.5 -24.5t22.5 -30.5t8.5 -39zM578 510q0 26 -21 41.5t-56 15.5q-36 0 -56.5 -15.5t-20.5 -41.5t22 -42t57 -33q34 17 54.5 33
t20.5 42zM585 294q0 32 -24.5 51t-63.5 36q-39 -17 -63.5 -36t-24.5 -50q0 -27 26 -44.5t63 -17.5q39 0 63 17.5t24 43.5z" />
    <glyph glyph-name="uni2468" unicode="&#x2468;" horiz-adv-x="998" 
d="M944 392q0 -88 -35.5 -162t-96.5 -128t-142 -84t-171 -30t-171 30t-142 84t-96.5 128t-35.5 162t35.5 162t96.5 128t142 84t171 30t171 -30t142 -84t96.5 -128t35.5 -162zM855 393q0 73 -28 136.5t-76 110t-113 73t-139 26.5t-139 -26.5t-113.5 -73t-76.5 -110
t-28 -136.5q0 -74 28 -137t76.5 -109.5t113.5 -73t139 -26.5t139 26.5t113 73t76 109.5t28 137zM670 452q0 -58 -23.5 -104t-62.5 -79.5t-89.5 -55t-104.5 -30.5l-15 54q66 15 116.5 44t76.5 81q-13 -4 -30.5 -6t-33.5 -2q-77 0 -122.5 31.5t-45.5 94.5q0 27 11 51
t32.5 42.5t52.5 29t70 10.5q83 0 125.5 -44.5t42.5 -116.5zM588 458q0 49 -21.5 77.5t-65.5 28.5q-42 0 -61.5 -25t-19.5 -59q0 -82 104 -82q33 0 58 7q6 25 6 53z" />
    <glyph glyph-name="uni2469" unicode="&#x2469;" horiz-adv-x="1282" 
d="M1228 392q0 -88 -35.5 -162t-96.5 -128t-142 -84t-171 -30h-284q-90 0 -171 30t-142 84t-96.5 128t-35.5 162t35.5 162t96.5 128t142 84t171 30h284q90 0 171 -30t142 -84t96.5 -128t35.5 -162zM1140 393q0 73 -28 136.5t-76.5 110t-113.5 73t-139 26.5h-284
q-74 0 -139 -26.5t-113.5 -73t-76.5 -110t-28 -136.5q0 -74 28 -137t76.5 -109.5t113.5 -73t139 -26.5h284q74 0 139 26.5t113.5 73t76.5 109.5t28 137zM966 398q0 -39 -8.5 -77.5t-28 -69t-51.5 -49.5t-80 -19t-80 19t-51.5 49.5t-27.5 69t-8 77.5t8 77.5t27.5 69
t51.5 49.5t80 19t80 -19t51.5 -49.5t28 -69t8.5 -77.5zM437 192v322q-25 -9 -61 -16.5t-72 -9.5l-11 49q63 5 107.5 23.5t63.5 43.5h64v-412h-91zM879 399q0 32 -4 61.5t-13 52.5t-24.5 36.5t-39.5 13.5t-39.5 -13.5t-24.5 -36.5t-12.5 -52.5t-3.5 -61.5t3.5 -61.5t12.5 -52
t24.5 -36t39.5 -13.5t39.5 13.5t24.5 36t13 52t4 61.5z" />
    <glyph glyph-name="uni246A" unicode="&#x246a;" horiz-adv-x="1282" 
d="M1228 392q0 -88 -35.5 -162t-96.5 -128t-142 -84t-171 -30h-284q-90 0 -171 30t-142 84t-96.5 128t-35.5 162t35.5 162t96.5 128t142 84t171 30h284q90 0 171 -30t142 -84t96.5 -128t35.5 -162zM1140 393q0 73 -28 136.5t-76.5 110t-113.5 73t-139 26.5h-284
q-74 0 -139 -26.5t-113.5 -73t-76.5 -110t-28 -136.5q0 -74 28 -137t76.5 -109.5t113.5 -73t139 -26.5h284q74 0 139 26.5t113.5 73t76.5 109.5t28 137zM787 192v322q-25 -9 -61.5 -16.5t-72.5 -9.5l-10 49q63 5 107.5 23.5t63.5 43.5h63v-412h-90zM466 192v322
q-25 -9 -61.5 -16.5t-72.5 -9.5l-10 49q63 5 107.5 23.5t63.5 43.5h64v-412h-91z" />
    <glyph glyph-name="uni246B" unicode="&#x246b;" horiz-adv-x="1282" 
d="M1228 392q0 -88 -35.5 -162t-96.5 -128t-142 -84t-171 -30h-284q-90 0 -171 30t-142 84t-96.5 128t-35.5 162t35.5 162t96.5 128t142 84t171 30h284q90 0 171 -30t142 -84t96.5 -128t35.5 -162zM1140 393q0 73 -28 136.5t-76.5 110t-113.5 73t-139 26.5h-284
q-74 0 -139 -26.5t-113.5 -73t-76.5 -110t-28 -136.5q0 -74 28 -137t76.5 -109.5t113.5 -73t139 -26.5h284q74 0 139 26.5t113.5 73t76.5 109.5t28 137zM612 192l184 204q26 29 36.5 50.5t10.5 41.5q0 30 -22.5 49t-67.5 19q-26 0 -50 -5t-47 -13l-20 51q28 11 62.5 17.5
t70.5 6.5q45 0 76.5 -9.5t51.5 -26t29 -37.5t9 -44q0 -29 -17 -59t-49 -62l-118 -120h187v-63h-326zM446 192v322q-25 -9 -61.5 -16.5t-72.5 -9.5l-10 49q63 5 107.5 23.5t63.5 43.5h64v-412h-91z" />
    <glyph glyph-name="uni246C" unicode="&#x246c;" horiz-adv-x="1282" 
d="M1228 392q0 -88 -35.5 -162t-96.5 -128t-142 -84t-171 -30h-284q-90 0 -171 30t-142 84t-96.5 128t-35.5 162t35.5 162t96.5 128t142 84t171 30h284q90 0 171 -30t142 -84t96.5 -128t35.5 -162zM1140 393q0 73 -28 136.5t-76.5 110t-113.5 73t-139 26.5h-284
q-74 0 -139 -26.5t-113.5 -73t-76.5 -110t-28 -136.5q0 -74 28 -137t76.5 -109.5t113.5 -73t139 -26.5h284q74 0 139 26.5t113.5 73t76.5 109.5t28 137zM950 314q0 -30 -13.5 -54t-37.5 -41t-57 -26.5t-73 -9.5q-45 0 -80.5 6.5t-63.5 18.5l22 52q20 -8 47 -13.5t57 -5.5
q50 0 77 20.5t27 52.5q0 21 -11 35.5t-29 23.5t-41 12.5t-46 3.5h-17v42q63 4 96.5 24.5t33.5 48.5t-24 40t-60 12q-52 0 -95 -17l-20 50q28 11 61 17.5t72 6.5q68 0 111 -26t43 -74q0 -18 -8 -32.5t-20 -25.5t-27 -19t-28 -13v-2q19 -5 37.5 -14t33.5 -21.5t24 -30.5t9 -41
zM448 192v322q-25 -9 -61.5 -16.5t-72.5 -9.5l-10 49q63 5 107.5 23.5t63.5 43.5h64v-412h-91z" />
    <glyph glyph-name="uni246D" unicode="&#x246d;" horiz-adv-x="1282" 
d="M1228 392q0 -88 -35.5 -162t-96.5 -128t-142 -84t-171 -30h-284q-90 0 -171 30t-142 84t-96.5 128t-35.5 162t35.5 162t96.5 128t142 84t171 30h284q90 0 171 -30t142 -84t96.5 -128t35.5 -162zM1140 393q0 73 -28 136.5t-76.5 110t-113.5 73t-139 26.5h-284
q-74 0 -139 -26.5t-113.5 -73t-76.5 -110t-28 -136.5q0 -74 28 -137t76.5 -109.5t113.5 -73t139 -26.5h284q74 0 139 26.5t113.5 73t76.5 109.5t28 137zM908 279v-87h-85v87h-207v47l209 278h83v-279h48v-46h-48zM438 192v322q-25 -9 -61.5 -16.5t-72.5 -9.5l-10 49
q63 5 107.5 23.5t63.5 43.5h64v-412h-91zM823 531q-8 -14 -17 -28t-18 -27l-112 -151h147v147q0 14 0.5 29.5t1.5 29.5h-2z" />
    <glyph glyph-name="uni246E" unicode="&#x246e;" horiz-adv-x="1282" 
d="M1228 392q0 -88 -35.5 -162t-96.5 -128t-142 -84t-171 -30h-284q-90 0 -171 30t-142 84t-96.5 128t-35.5 162t35.5 162t96.5 128t142 84t171 30h284q90 0 171 -30t142 -84t96.5 -128t35.5 -162zM1140 393q0 73 -28 136.5t-76.5 110t-113.5 73t-139 26.5h-284
q-74 0 -139 -26.5t-113.5 -73t-76.5 -110t-28 -136.5q0 -74 28 -137t76.5 -109.5t113.5 -73t139 -26.5h284q74 0 139 26.5t113.5 73t76.5 109.5t28 137zM942 314q0 -60 -50.5 -95.5t-133.5 -35.5q-47 0 -80.5 7t-59.5 18l22 52q17 -7 43.5 -13t59.5 -6q50 0 77 19.5t27 54.5
q0 36 -28 58.5t-94 22.5q-17 0 -38 -2t-44 -6l27 216h255v-62h-194l-12 -104q25 3 49 3q88 0 131 -34t43 -93zM440 192v322q-25 -9 -61.5 -16.5t-72.5 -9.5l-10 49q63 5 107.5 23.5t63.5 43.5h64v-412h-91z" />
    <glyph glyph-name="uni246F" unicode="&#x246f;" horiz-adv-x="1282" 
d="M1228 392q0 -88 -35.5 -162t-96.5 -128t-142 -84t-171 -30h-284q-90 0 -171 30t-142 84t-96.5 128t-35.5 162t35.5 162t96.5 128t142 84t171 30h284q90 0 171 -30t142 -84t96.5 -128t35.5 -162zM1140 393q0 73 -28 136.5t-76.5 110t-113.5 73t-139 26.5h-284
q-74 0 -139 -26.5t-113.5 -73t-76.5 -110t-28 -136.5q0 -74 28 -137t76.5 -109.5t113.5 -73t139 -26.5h284q74 0 139 26.5t113.5 73t76.5 109.5t28 137zM959 316q0 -27 -11 -51t-32.5 -42.5t-52.5 -29t-70 -10.5q-83 0 -125.5 44.5t-42.5 116.5q0 58 23.5 104t62.5 79.5
t89.5 55t104.5 30.5l16 -54q-66 -15 -116.5 -44t-76.5 -81q13 4 30.5 6.5t33.5 2.5q77 0 122 -32t45 -95zM437 192v322q-25 -9 -61.5 -16.5t-72.5 -9.5l-10 49q63 5 107.5 23.5t63.5 43.5h63v-412h-90zM875 318q0 83 -104 83q-16 0 -29.5 -2t-27.5 -6q-3 -13 -4.5 -25
t-1.5 -27q0 -49 21 -78t65 -29q42 0 61.5 25t19.5 59z" />
    <glyph glyph-name="uni2470" unicode="&#x2470;" horiz-adv-x="1282" 
d="M1228 392q0 -88 -35.5 -162t-96.5 -128t-142 -84t-171 -30h-284q-90 0 -171 30t-142 84t-96.5 128t-35.5 162t35.5 162t96.5 128t142 84t171 30h284q90 0 171 -30t142 -84t96.5 -128t35.5 -162zM1140 393q0 73 -28 136.5t-76.5 110t-113.5 73t-139 26.5h-284
q-74 0 -139 -26.5t-113.5 -73t-76.5 -110t-28 -136.5q0 -74 28 -137t76.5 -109.5t113.5 -73t139 -26.5h284q74 0 139 26.5t113.5 73t76.5 109.5t28 137zM890 476q-21 -42 -40 -83t-34.5 -78.5t-27 -69t-17.5 -53.5h-107l182 350h-218v62h328zM440 192v322
q-25 -9 -61.5 -16.5t-72.5 -9.5l-10 49q63 5 107.5 23.5t63.5 43.5h63v-412h-90z" />
    <glyph glyph-name="uni2471" unicode="&#x2471;" horiz-adv-x="1282" 
d="M1228 392q0 -88 -35.5 -162t-96.5 -128t-142 -84t-171 -30h-284q-90 0 -171 30t-142 84t-96.5 128t-35.5 162t35.5 162t96.5 128t142 84t171 30h284q90 0 171 -30t142 -84t96.5 -128t35.5 -162zM1140 393q0 73 -28 136.5t-76.5 110t-113.5 73t-139 26.5h-284
q-74 0 -139 -26.5t-113.5 -73t-76.5 -110t-28 -136.5q0 -74 28 -137t76.5 -109.5t113.5 -73t139 -26.5h284q74 0 139 26.5t113.5 73t76.5 109.5t28 137zM958 294q0 -24 -12.5 -44.5t-34.5 -35t-53 -23t-68 -8.5q-35 0 -65.5 7.5t-53 21.5t-35.5 34.5t-13 46.5q0 22 8.5 38.5
t23 30t34 24t40.5 20.5q-38 18 -64.5 41.5t-26.5 61.5q0 23 11.5 42t31.5 33t48 21.5t61 7.5t61 -7.5t48.5 -21.5t32 -33t11.5 -42q0 -37 -26 -59.5t-64 -40.5q21 -10 40.5 -21t33.5 -24.5t22.5 -30.5t8.5 -39zM437 192v322q-25 -9 -61.5 -16.5t-72.5 -9.5l-10 49
q63 5 107.5 23.5t63.5 43.5h64v-412h-91zM870 510q0 26 -21.5 41.5t-56.5 15.5q-36 0 -56.5 -15.5t-20.5 -41.5t22 -42t57 -33q34 17 55 33t21 42zM876 294q0 32 -24.5 51t-63.5 36q-39 -17 -63.5 -36t-24.5 -50q0 -27 26 -44.5t63 -17.5q39 0 63 17.5t24 43.5z" />
    <glyph glyph-name="uni2472" unicode="&#x2472;" horiz-adv-x="1282" 
d="M1228 392q0 -88 -35.5 -162t-96.5 -128t-142 -84t-171 -30h-284q-90 0 -171 30t-142 84t-96.5 128t-35.5 162t35.5 162t96.5 128t142 84t171 30h284q90 0 171 -30t142 -84t96.5 -128t35.5 -162zM1140 393q0 73 -28 136.5t-76.5 110t-113.5 73t-139 26.5h-284
q-74 0 -139 -26.5t-113.5 -73t-76.5 -110t-28 -136.5q0 -74 28 -137t76.5 -109.5t113.5 -73t139 -26.5h284q74 0 139 26.5t113.5 73t76.5 109.5t28 137zM964 452q0 -58 -23.5 -104t-62.5 -79.5t-89.5 -55t-104.5 -30.5l-16 54q66 15 116.5 44t76.5 81q-13 -4 -30.5 -6
t-33.5 -2q-77 0 -122 31.5t-45 94.5q0 27 11 51t32.5 42.5t52.5 29t70 10.5q83 0 125.5 -44.5t42.5 -116.5zM442 192v322q-25 -9 -61.5 -16.5t-72.5 -9.5l-10 49q63 5 107.5 23.5t63.5 43.5h64v-412h-91zM881 458q0 49 -21.5 77.5t-65.5 28.5q-42 0 -61 -25t-19 -59
q0 -82 104 -82q32 0 57 7q6 25 6 53z" />
    <glyph glyph-name="uni2473" unicode="&#x2473;" horiz-adv-x="1282" 
d="M1228 392q0 -88 -35.5 -162t-96.5 -128t-142 -84t-171 -30h-284q-90 0 -171 30t-142 84t-96.5 128t-35.5 162t35.5 162t96.5 128t142 84t171 30h284q90 0 171 -30t142 -84t96.5 -128t35.5 -162zM1140 393q0 73 -28 136.5t-76.5 110t-113.5 73t-139 26.5h-284
q-74 0 -139 -26.5t-113.5 -73t-76.5 -110t-28 -136.5q0 -74 28 -137t76.5 -109.5t113.5 -73t139 -26.5h284q74 0 139 26.5t113.5 73t76.5 109.5t28 137zM1013 398q0 -39 -8 -77.5t-27.5 -69t-51.5 -49.5t-80 -19t-80 19t-51.5 49.5t-28 69t-8.5 77.5t8.5 77.5t28 69
t51.5 49.5t80 19t80 -19t51.5 -49.5t27.5 -69t8 -77.5zM294 192l184 204q26 29 36.5 50.5t10.5 41.5q0 30 -22.5 49t-67.5 19q-26 0 -50 -5t-47 -13l-20 51q28 11 63 17.5t71 6.5q45 0 76 -9.5t51 -26t29 -37.5t9 -44q0 -29 -17 -59t-49 -62l-118 -120h188v-63h-327z
M926 399q0 32 -3.5 61.5t-12.5 52.5t-24.5 36.5t-39.5 13.5t-39.5 -13.5t-24.5 -36.5t-13 -52.5t-4 -61.5t4 -61.5t13 -52t24.5 -36t39.5 -13.5t39.5 13.5t24.5 36t12.5 52t3.5 61.5z" />
    <glyph glyph-name="uni24EA" unicode="&#x24ea;" horiz-adv-x="998" 
d="M944 392q0 -88 -35.5 -162t-96.5 -128t-142 -84t-171 -30t-171 30t-142 84t-96.5 128t-35.5 162t35.5 162t96.5 128t142 84t171 30t171 -30t142 -84t96.5 -128t35.5 -162zM855 393q0 73 -28 136.5t-76 110t-113 73t-139 26.5t-139 -26.5t-113.5 -73t-76.5 -110
t-28 -136.5q0 -74 28 -137t76.5 -109.5t113.5 -73t139 -26.5t139 26.5t113 73t76 109.5t28 137zM666 398q0 -39 -8 -77.5t-27.5 -69t-51.5 -49.5t-80 -19t-80 19t-51.5 49.5t-28 69t-8.5 77.5t8.5 77.5t28 69t51.5 49.5t80 19t80 -19t51.5 -49.5t27.5 -69t8 -77.5zM579 399
q0 32 -3.5 61.5t-12.5 52.5t-24.5 36.5t-39.5 13.5t-39.5 -13.5t-24.5 -36.5t-13 -52.5t-4 -61.5t4 -61.5t13 -52t24.5 -36t39.5 -13.5t39.5 13.5t24.5 36t12.5 52t3.5 61.5z" />
    <glyph glyph-name="lozenge" unicode="&#x25ca;" horiz-adv-x="763" 
d="M382 -14l-338 358l338 358l337 -358zM374 580l-213 -229l229 -243l213 228z" />
    <glyph glyph-name="fi" unicode="&#xfb01;" horiz-adv-x="654" 
d="M244 468v-468h-125v468h-82v71h82v68q0 81 53 130t153 49h13q9 0 20 -1v-71h-12q-42 0 -72 -24t-30 -75v-76h114v-71h-114zM456 0v539h125v-539h-125zM591 692q0 -25 -21 -42.5t-51 -17.5t-51.5 17.5t-21.5 42.5t21.5 42.5t51.5 17.5t51 -17.5t21 -42.5z" />
    <glyph glyph-name="fl" unicode="&#xfb02;" horiz-adv-x="666" 
d="M244 468v-468h-125v468h-82v71h82v68q0 81 53 130t153 49h13q9 0 20 -1v-71h-12q-42 0 -72 -24t-30 -75v-76h114v-71h-114zM469 0v785h125v-785h-125z" />
    </font>
</defs>
</svg>
